<?xml version="1.0" standalone="no"?>
<!DOCTYPE svg PUBLIC "-//W3C//DTD SVG 1.1//EN" "http://www.w3.org/Graphics/SVG/1.1/DTD/svg11.dtd" >
<svg>
<metadata>
Created by FontForge 20090914 at Tue Dec 11 10:49:03 2018
 By www-data
Copyright (c) 2014 Indian Type Foundry (info@indiantypefoundry.com)
</metadata>
<defs>
<font id="Kalam-Regular" horiz-adv-x="0" >
  <font-face 
    font-family="Kalam"
    font-weight="400"
    font-stretch="normal"
    units-per-em="1000"
    panose-1="2 0 0 0 0 0 0 0 0 0"
    ascent="750"
    descent="-250"
    x-height="508.998"
    cap-height="653.001"
    bbox="-594.002 -478.003 2243 1034"
    underline-thickness="50"
    underline-position="-50"
    unicode-range="U+000D-U+FB02"
  />
<missing-glyph horiz-adv-x="750" 
d="M234 651v-601h282v601h-282zM180 0v701h390v-701h-390z" />
    <glyph glyph-name=".notdef" horiz-adv-x="750" 
d="M234 651v-601h282v601h-282zM180 0v701h390v-701h-390z" />
    <glyph glyph-name="NULL" 
 />
    <glyph glyph-name="NULL" 
 />
    <glyph glyph-name="CR" unicode="&#xd;" 
 />
    <glyph glyph-name="space" unicode=" " horiz-adv-x="300" 
 />
    <glyph glyph-name="exclam" unicode="!" horiz-adv-x="360" 
d="M176 19c0 -4 -2.99902 -8.66699 -8.99902 -14s-12 -8 -18 -8c-16 0 -34.167 10 -54.5 30s-30.5 37 -30.5 51s5.33301 27.5 16 40.5s21.667 19.5 33 19.5s24.666 -15.833 39.999 -47.5s23 -55.5 23 -71.5zM290.001 752c0 -58 -14.332 -158.666 -42.999 -301.999
s-51.334 -215 -68.001 -215c-10 0 -19.5 5.5 -28.5 16.5s-12.833 22.833 -11.5 35.5c38 190 57 355.333 57 496c0 16.667 5 25 15 25c10.667 0.666992 26.5 -6.33301 47.5 -21s31.5 -26.334 31.5 -35.001z" />
    <glyph glyph-name="quotedbl" unicode="&#x22;" horiz-adv-x="314" 
d="M298 800c0 -34 -4.83203 -83.334 -14.499 -148.001s-20.5 -97 -32.5 -97c-6.66699 0 -13.834 4.16699 -21.501 12.5s-11.5 15 -11.5 20s3 34.833 9 89.5s9 103.334 9 146.001c0 12 4 18 12 18s18.333 -5.16699 31 -15.5s19 -18.833 19 -25.5zM133.001 799.999
c0 -34 -4.83398 -83.334 -14.501 -148.001s-20.5 -97 -32.5 -97c-6.66699 0 -13.667 4.16699 -21 12.5s-11 15 -11 20s3 34.833 9 89.5s9 103.334 9 146.001c0 12 3.83301 18 11.5 18s17.834 -5.16699 30.501 -15.5s19 -18.833 19 -25.5z" />
    <glyph glyph-name="numbersign" unicode="#" horiz-adv-x="642" 
d="M170 17c-9.33301 0 -17.8379 6.83301 -25.5049 20.5s-10.834 28.834 -9.50098 45.501l9.5 43c4.33301 20 7.83301 35.333 10.5 46c-46 -7.33301 -72.333 -10.833 -79 -10.5s-13.5 5.83301 -20.5 16.5s-10.5 20.667 -10.5 30c0 17.333 43 32.333 129 45l20 84l22 93
c-55.333 -9.33301 -86.666 -13.833 -93.999 -13.5s-14.666 5.66602 -21.999 15.999s-11 20.166 -11 29.499c0 18 48.333 34 145 48c12.667 62 18.834 105.167 18.501 129.5s0.666992 38.833 3 43.5s8 7 17 7s21.5 -7.66699 37.5 -23s24 -32.5 24 -51.5
s-4.33301 -50.833 -13 -95.5c15.333 1.33301 56 4.66602 122 9.99902c10.667 55.333 15.834 93.5 15.501 114.5s0.666992 33.833 3 38.5s8 7 17 7s21.5 -7.66699 37.5 -23s24 -31.666 24 -48.999s-3.33301 -45.333 -10 -84c12 0.666992 26.333 1 43 1c40 0 60 -9 60 -27
c0 -8.66699 -8.66699 -15.834 -26 -21.501s-47.666 -11.5 -90.999 -17.5l-48 -191c33.333 1.33301 53.333 2 60 2c41.333 0 61.333 -9 60 -27c0 -9.33301 -10.5 -17 -31.5 -23s-56.833 -12.333 -107.5 -19c-20.667 -80 -36.5 -132.333 -47.5 -157s-20.833 -37 -29.5 -37
s-16.167 6 -22.5 18s-9.16602 25 -8.49902 39c3.33301 16.667 8.66602 40.834 15.999 72.501s11.333 49.834 12 54.501l-134 -17l-8 -31c-23.333 -75.333 -37.666 -116.833 -42.999 -124.5s-10 -11.5 -14 -11.5zM304.995 442l-1 0.000976562
c-12 -48 -27.667 -107.333 -47 -178c56 5.33301 99 8.66602 129 9.99902c16.667 70 30.667 131.333 42 184z" />
    <glyph glyph-name="dollar" unicode="$" horiz-adv-x="527" 
d="M189 92l64.002 217.001c-45.333 28.667 -80.5 54.5 -105.5 77.5s-37.5 46.5 -37.5 70.5c0 15.333 3 31.666 9 48.999s13 29.666 21 36.999c43.333 40.667 114 72.334 212 95.001c13.333 42 25 71.167 35 87.5s20.667 24.5 32 24.5c14.667 0 22 -11.333 22 -34
c-1.33301 -19.333 -6 -41.333 -14 -66c4 0.666992 10 1 18 1c19.333 0 35 -8.5 47 -25.5s18 -33.5 18 -49.5c0 -9.33301 -5 -14 -15 -14c-4 0 -11 1.33301 -21 4c-22.667 6 -47.334 6.33301 -74.001 1l-43.5 -138c-11 -34 -19.167 -60.333 -24.5 -79
c47.333 -31.333 84.333 -60.666 111 -87.999s39.334 -55.333 38.001 -84c-2.66699 -45.333 -29.334 -82.5 -80.001 -111.5s-107.667 -45.5 -171 -49.5c-10 -32 -18 -53 -24 -63s-12.667 -15 -20 -15s-13 3 -17 9s-5.83301 13.167 -5.5 21.5s2.83301 24.833 7.5 49.5
c-44.667 7.33301 -81.834 25.666 -111.501 54.999s-44.5 54.833 -44.5 76.5s6.66699 32.5 20 32.5c8 0 19 -7.66699 33 -23c44 -45.333 84.333 -68 121 -68zM354.502 128.501c26.333 15 39.5 33.5 39.5 55.5s-28.667 51.667 -86 89l-54 -176
c40.667 6 74.167 16.5 100.5 31.5zM192.002 466.001c0 -17.333 27.668 -43.667 83.001 -79l49 162c-36.667 -11.333 -67.834 -24.5 -93.501 -39.5s-38.5 -29.5 -38.5 -43.5z" />
    <glyph glyph-name="percent" unicode="%" horiz-adv-x="878" 
d="M689 403c31.333 0 57.5 -16.332 78.5 -48.999s31.5 -70.334 31.5 -113.001c0 -57.333 -20.333 -110 -61 -158s-83.667 -72 -129 -72c-27.333 0 -51.5 14.167 -72.5 42.5s-31.5 59.5 -31.5 93.5c0 64 19.5 122.667 58.5 176s80.833 80 125.5 80zM622 85.001
c20.667 0 43.167 15.832 67.5 47.499s36.5 63.334 36.5 95.001s-4.33301 56.5 -13 74.5s-18.667 27 -30 27c-20 0 -42 -19 -66 -57s-36 -77 -36 -117c0 -18.667 3.66699 -35 11 -49s17.333 -21 30 -21zM681 756c8.66699 0 18.334 -9.33594 29.001 -28.0029
s14.667 -35 12 -49s-15.334 -37.833 -38.001 -71.5s-58.334 -83 -107.001 -148l-129.5 -179l-92.5 -133l-68 -95.5c-21.333 -29.333 -36 -48 -44 -56s-14.833 -11.333 -20.5 -10s-12.167 7 -19.5 17s-10.166 18.833 -8.49902 26.5s8.5 21.334 20.5 41.001
s31.833 49.834 59.5 90.501l79.5 116l115 165l132 189c-34.667 -19.333 -70.667 -33 -108 -41c-40.667 -8 -77 -6.66699 -109 4c5.33301 -20 8 -39.667 8 -59c0 -57.333 -20.333 -110 -61 -158s-83.667 -72 -129 -72c-28 0 -52.333 14 -73 42s-31 59.333 -31 94
c0 64 19.333 122.5 58 175.5s80.334 79.5 125.001 79.5c11.333 0 21.166 -1.83301 29.499 -5.5s18.5 -9.16699 30.5 -16.5c38.667 -25.333 89.667 -26.666 153 -3.99902c46 16.667 87.167 35.167 123.5 55.5s57.5 30.5 63.5 30.5zM215 378.997
c20 0 42.168 15.833 66.501 47.5s36.5 63.334 36.5 95.001s-4.33301 56.5 -13 74.5s-18.667 27 -30 27c-20 0 -42 -19.167 -66 -57.5s-36 -77.5 -36 -117.5c0 -18.667 3.66699 -34.834 11 -48.501s17.666 -20.5 30.999 -20.5z" />
    <glyph glyph-name="ampersand" unicode="&#x26;" horiz-adv-x="639" 
d="M558 88c31.333 0 53.166 -1.66797 65.499 -5.00098s18.166 -9 17.499 -17c0 -30 -31 -45 -93 -45s-125 29.333 -189 88c-106 -66 -184.667 -99 -236 -99c-25.333 0 -49.5 11.833 -72.5 35.5s-34.5 46.834 -34.5 69.501s14.667 48.5 44 77.5s59 55.5 89 79.5
s45.667 36.667 47 38c2.66699 2.66699 8 7 16 13c-50 129.333 -42.667 227 22 293c34.667 36.667 79.667 55 135 55c42.667 0 73 -12.667 91 -38s26.667 -53 26 -83c-1.33301 -60 -62.666 -142 -183.999 -246c18 -38.667 39 -72.667 63 -102l107 74
c84.667 61.333 130.667 92 138 92c18.667 0 28 -9.33301 28 -28c0 -12 -21.833 -37.167 -65.5 -75.5s-95.167 -77.5 -154.5 -117.5c46.667 -39.333 93.334 -59 140.001 -59zM390 583.999c-8.66699 10.667 -23.668 16 -45.001 16s-40.333 -11.5 -57 -34.5
s-25.667 -51.333 -27 -85s3.33398 -68.5 14.001 -104.5c84 72.667 126.667 128.667 128 168c0 16 -4.33301 29.333 -13 40zM99.999 108.999c0 -7.33301 2.5 -13.334 7.5 -18.001s11.5 -7 19.5 -7c34.667 0 94.667 26.667 180 80c-22 26.667 -42.667 57.334 -62 92.001
c-73.333 -61.333 -115.833 -99.333 -127.5 -114s-17.5 -25.667 -17.5 -33z" />
    <glyph glyph-name="quotesingle" unicode="'" horiz-adv-x="301" 
d="M231 800c0 -29.333 -6.49902 -78.167 -19.499 -146.5s-25.167 -101.166 -36.5 -98.499c-6.66699 0 -13.834 4.16699 -21.501 12.5s-11.5 15.166 -11.5 20.499s3.83301 35.333 11.5 90s11.5 103 11.5 145c0 12 4 18 12 18s19 -5.33301 33 -16s21 -19 21 -25z" />
    <glyph glyph-name="parenleft" unicode="(" horiz-adv-x="486" 
d="M185.5 404.5c-14.333 -45.667 -21.498 -89.8311 -21.498 -132.498s5.16699 -78.834 15.5 -108.501s23.666 -54.334 39.999 -74.001s34.333 -37.5 54 -53.5s39.5 -29.333 59.5 -40l54.5 -28.5c16.333 -8.33301 29.666 -16.166 39.999 -23.499s15.5 -14.666 15.5 -21.999
c0 -14 -10.833 -21 -32.5 -21s-46.834 4.66699 -75.501 14s-58 24.333 -88 45s-57.333 45 -82 73s-44.834 62.833 -60.501 104.5s-23.5 91.667 -23.5 150s12.333 120.333 37 186s55.167 121.667 91.5 168s74.666 87.666 114.999 123.999s76.333 63.333 108 81
s53.834 26.5 66.501 26.5s24.334 -5.16699 35.001 -15.5s16 -19.833 16 -28.5s-7.16699 -19 -21.5 -31s-32.833 -26.333 -55.5 -43l-75 -57.5c-27.333 -21.667 -54.666 -47.334 -81.999 -77.001s-52.333 -61.667 -75 -96s-41.167 -74.333 -55.5 -120z" />
    <glyph glyph-name="parenright" unicode=")" horiz-adv-x="501" 
d="M61 -56.5c-31.333 -19 -52.834 -28.501 -64.501 -28.501s-19 1.33301 -22 4s-4.5 7.5 -4.5 14.5s12.5 21.667 37.5 44l91 85.5c35.667 34.667 71.5 74.167 107.5 118.5s66.5 97.833 91.5 160.5s37.5 127 37.5 193c0 39.333 -5.66699 74.166 -17 104.499
s-25.166 53.666 -41.499 69.999s-32.5 30.333 -48.5 42s-29.667 22.334 -41 32.001s-17 20.667 -17 33s5.33301 22.333 16 30s24 11.5 40 11.5c44 0 88 -28.833 132 -86.5s65.667 -125.167 65 -202.5s-14 -151.666 -40 -222.999s-57.833 -132.166 -95.5 -182.499
s-77 -94.833 -118 -133.5s-77.167 -67.5 -108.5 -86.5z" />
    <glyph glyph-name="asterisk" unicode="*" horiz-adv-x="355" 
d="M260 695c43.333 50.667 68.665 76 75.998 76s15.166 -3.5 23.499 -10.5s12.5 -14.167 12.5 -21.5c0 -4 -11.833 -13.167 -35.5 -27.5s-45.5 -25.833 -65.5 -34.5c30 10 60 15 90 15s45 -4.33301 45 -13c0 -12 -12.667 -21 -38 -27s-56.666 -5.66699 -93.999 1
c4 -4.66699 13 -12.334 27 -23.001c36 -28.667 54 -47 54 -55c0 -4.66699 -2.66699 -8.83398 -8 -12.501s-10.666 -5.5 -15.999 -5.5c-19.333 0 -43.666 23 -72.999 69c-10 -64 -18.833 -96 -26.5 -96s-15.5 3.83301 -23.5 11.5s-12 14.334 -12 20.001s4.5 18 13.5 37
s13.833 30.167 14.5 33.5c-8.66699 -12.667 -22.334 -29.167 -41.001 -49.5s-31.167 -30.5 -37.5 -30.5s-12.666 3.16699 -18.999 9.5s-9.5 11.666 -9.5 15.999s5.16699 10.333 15.5 18s23.666 17 39.999 28s28.166 19.5 35.499 25.5c-42 -12.667 -68.167 -19 -78.5 -19
s-19.333 4.33301 -27 13s-11.5 17.334 -11.5 26.001s5.33301 13 16 13c0.666992 0 13.334 -1.16699 38.001 -3.5s45 -3.5 61 -3.5c-19.333 10.667 -39 25.834 -59 45.501s-30 32.5 -30 38.5s0.5 10 1.5 12s6.33301 3 16 3s22.334 -2.66699 38.001 -8s23.5 -11.333 23.5 -18
c0 -4 3.66699 -11.667 11 -23s15 -21 23 -29l-7 81c0 9.33301 4 14 12 14s18.167 -4.66699 30.5 -14s18.5 -17 18.5 -23s-8 -25.667 -24 -59z" />
    <glyph glyph-name="plus" unicode="+" horiz-adv-x="600" 
d="M603 361c0 -28 -84.335 -50.3311 -253.002 -66.998l-19.5 -98c-9 -45.333 -16.167 -77.833 -21.5 -97.5s-11.666 -29.167 -18.999 -28.5c-10 0 -19.833 6.5 -29.5 19.5s-14.167 26 -13.5 39s2.16699 26 4.5 39l10 53.5c4.33301 22.667 8.16602 45 11.499 67
c-57.333 -4 -110 -6 -158 -6c-15.333 0 -29.166 6.33301 -41.499 19s-18.5 25.5 -18.5 38.5s9 19.5 27 19.5c101.333 0 168.333 1 201 3c8.66699 68.667 15 129.667 19 183c0.666992 19.333 7.33398 29 20.001 29c11.333 -0.666992 26 -9.83398 44 -27.501
s26.667 -31.834 26 -42.501c-1.33301 -22.667 -10 -67.667 -26 -135c102.667 8.66699 160.667 13 174 13c42 0 63 -7 63 -21z" />
    <glyph glyph-name="comma" unicode="," horiz-adv-x="224" 
d="M7 -171c-14.667 0 -22 4.66699 -22 14c0 5.33301 5.5 13.166 16.5 23.499l35.5 32c12.667 11 24.5 26 35.5 45s16.5 36 16.5 51s-3.16699 25.667 -9.5 32s-13.166 10.833 -20.499 13.5c-20 7.33301 -30 17.333 -30 30c0 10.667 5.83301 21.667 17.5 33s23.167 17 34.5 17
c23.333 0 43.666 -9.16699 60.999 -27.5s26 -40.166 26 -65.499c0 -46 -19.667 -90.5 -59 -133.5s-73.333 -64.5 -102 -64.5z" />
    <glyph glyph-name="hyphen" unicode="-" horiz-adv-x="451" 
d="M125.5 247.5c-11.667 -2.33301 -21.667 -3.49902 -30 -3.49902s-17.333 5.16699 -27 15.5s-14.5 20.166 -14.5 29.499c0 14 37.333 27.833 112 41.5s134.667 20.5 180 20.5s68 -8 68 -24c0 -10.667 -10.667 -19 -32 -25s-54 -13.333 -98 -22s-78.5 -15.667 -103.5 -21z
" />
    <glyph glyph-name="period" unicode="." horiz-adv-x="237" 
d="M89 25c-20.667 20.667 -30.999 38.167 -30.999 52.5s5.5 28.333 16.5 42s22.5 20.5 34.5 20.5s26 -16 42 -48s24 -56.333 24 -73c0 -4.66699 -3.5 -10 -10.5 -16s-13.5 -9 -19.5 -9c-16.667 0 -35.334 10.333 -56.001 31z" />
    <glyph glyph-name="slash" unicode="/" horiz-adv-x="362" 
d="M61 -76c-7.33301 0 -16.5029 6.50098 -27.5029 19.501s-16.5 23.833 -16.5 32.5c0 36.667 106.333 298 319 784c0.666992 2 1.5 4.16699 2.5 6.5s1.66699 4.16602 2 5.49902s0.833008 2.83301 1.5 4.5s1.33398 3 2.00098 4l2 3c0.666992 1 1.33398 1.83301 2.00098 2.5
l2 2c3.33301 0.666992 6 1 8 1c7.33301 0 18 -9.5 32 -28.5s21 -35.5 21 -49.5s-9 -41.5 -27 -82.5s-43.333 -95.667 -76 -164s-70.5 -153.833 -113.5 -256.5l-93.5 -219c-19.333 -43.333 -32.666 -65 -39.999 -65z" />
    <glyph glyph-name="zero" unicode="0" horiz-adv-x="449" 
d="M172.5 165c9.66699 -18 23.334 -26.998 41.001 -26.998s36 12.167 55 36.5s35.5 57.166 49.5 98.499s21 82 21 122c0 106 -12 159 -36 159c-16.667 0 -36.334 -16.333 -59.001 -49s-42.667 -74.834 -60 -126.501s-26 -95.667 -26 -132s4.83301 -63.5 14.5 -81.5z
M211 59.002c-32 0 -62.666 15.5 -91.999 46.5s-44 66.167 -44 105.5c0 69.333 11.667 137 35 203s53.166 119 89.499 159s72.5 60 108.5 60s63.333 -21.167 82 -63.5s28 -102.5 28 -180.5s-21 -152.5 -63 -223.5s-90 -106.5 -144 -106.5z" />
    <glyph glyph-name="one" unicode="1" horiz-adv-x="302" 
d="M183 669c14 0 30.5 -8.66992 49.5 -26.0029s28.5 -32 28.5 -44c-2 -68 -14 -160.333 -36 -277c-6.66699 -32 -11.834 -60.667 -15.501 -86s-7.16699 -47.166 -10.5 -65.499s-6.33301 -33.333 -9 -45l-8.5 -38.5c-3 -14 -5.83301 -25.167 -8.5 -33.5
s-5.66699 -16.166 -9 -23.499c-11.333 -27.333 -27.333 -28 -48 -2c-10 12.667 -14.833 26.334 -14.5 41.001s5.16602 47 14.499 97c26.667 144 42.334 302 47.001 474c0.666992 19.333 7.33398 29 20.001 29z" />
    <glyph glyph-name="two" unicode="2" horiz-adv-x="583" 
d="M252 512.5c-8 -7.66699 -15.333 -11.5039 -22 -11.5039s-17.667 5 -33 15s-23 19.667 -23 29c0 23.333 19.167 48.833 57.5 76.5s79.5 41.5 123.5 41.5s80.333 -15.333 109 -46s43 -69 43 -115c0 -132 -110 -268.667 -330 -410c170 26 263.5 39 280.5 39
s30.333 -1.5 40 -4.5s14.5 -9.5 14.5 -19.5c0 -19.333 -45.333 -39.5 -136 -60.5s-158.667 -31.5 -204 -31.5c-19.333 0 -39.333 8.33301 -60 25s-30.667 34.334 -30 53.001c0 10 11.5 25.167 34.5 45.5s51 43.333 84 69s66 53.334 99 83.001s61 62.834 84 99.501
s34.5 69.334 34.5 98.001s-5.66699 50.167 -17 64.5s-25.5 21.5 -42.5 21.5s-32.667 -3.83301 -47 -11.5s-25.833 -16 -34.5 -25z" />
    <glyph glyph-name="three" unicode="3" horiz-adv-x="517" 
d="M434.5 302.5c32.333 -21 48.502 -47.9961 48.502 -80.9961s-19 -65.667 -57 -98s-84.167 -57.5 -138.5 -75.5s-109.833 -27 -166.5 -27s-85 10.667 -85 32c0 6.66699 18.167 14.667 54.5 24s76.166 18.833 119.499 28.5s83.166 25.334 119.499 47.001
s54.5 46.5 54.5 74.5c0 15.333 -11.333 27.666 -34 36.999s-48 15.666 -76 18.999c-72.667 8.66699 -109 22 -109 40c0 14.667 14 30.5 42 47.5s56.333 33 85 48s54.834 33.833 78.501 56.5s35.5 45.667 35.5 69c0 26.667 -14.333 40 -43 40s-60.5 -10.167 -95.5 -30.5
s-56.833 -30.5 -65.5 -30.5s-19.167 6.16699 -31.5 18.5s-18.5 22.833 -18.5 31.5c0 19.333 23.667 39.166 71 59.499s90.666 30.5 129.999 30.5s72.333 -13.333 99 -40s40 -56.334 40 -89.001s-18.667 -65.834 -56 -99.501s-80.666 -63.167 -129.999 -88.5
c53.333 -8 96.166 -22.5 128.499 -43.5z" />
    <glyph glyph-name="four" unicode="4" horiz-adv-x="576" 
d="M459 432c10 0 23.502 -8.33496 40.502 -25.002s25.5 -31.667 25.5 -45c0 -59.333 -17.833 -148.666 -53.5 -267.999s-64.834 -179 -87.501 -179c-9.33301 0 -17.5 5 -24.5 15s-10.5 20.333 -10.5 31s3 25.834 9 45.501l24.5 78.5c10.333 32.667 18.833 63.667 25.5 93
c-57.333 -24 -108.333 -36 -153 -36s-79.667 11.333 -105 34s-38 52.667 -38 90s18 87.5 54 150.5s74.167 118 114.5 165s66.333 70.5 78 70.5s23 -5.5 34 -16.5s16.5 -21.333 16.5 -31s-17.333 -36 -52 -79s-69.334 -89.667 -104.001 -140s-52 -88.833 -52 -115.5
c0 -32 16 -48 48 -48c30 0 65 8 105 24s64 25.333 72 28c6 40 9 82.667 9 128c0 20 8 30 24 30z" />
    <glyph glyph-name="five" unicode="5" horiz-adv-x="566" 
d="M602 597c0 -16.667 -54.667 -32.332 -164 -46.999c-46.667 -6.66699 -72.667 -10.667 -78 -12c-10.667 -2.66699 -24.5 -17.5 -41.5 -44.5s-25.5 -46.833 -25.5 -59.5s8.5 -27.834 25.5 -45.501s35.5 -34 55.5 -49s38.5 -34.833 55.5 -59.5s25.5 -50.667 25.5 -78
c0 -48 -19.5 -87.833 -58.5 -119.5s-88.167 -47.5 -147.5 -47.5c-42.667 0 -80 9.83301 -112 29.5s-48 40.167 -48 61.5s3.33301 32 10 32c2.66699 0 8.83398 -4 18.501 -12s24 -16.167 43 -24.5s43.333 -12.5 73 -12.5s58.667 9.66699 87 29s42.5 39.5 42.5 60.5
s-8.66699 41.833 -26 62.5s-36.5 39 -57.5 55s-40.167 36 -57.5 60s-26 48.5 -26 73.5s14.167 57.667 42.5 98s52.166 62.833 71.499 67.5c37.333 9.33301 87.333 14 150 14c94.667 0 142 -10.667 142 -32z" />
    <glyph glyph-name="six" unicode="6" horiz-adv-x="542" 
d="M475 251c0 -50 -29.001 -98.002 -87.001 -144.002s-118 -69 -180 -69c-38.667 0 -70.5 13.5 -95.5 40.5s-37.5 61.833 -37.5 104.5s14.167 92.334 42.5 149.001s60.833 107.834 97.5 153.501s72.167 84.834 106.5 117.501s57.333 49 69 49s24.334 -4 38.001 -12
s20.5 -15.333 20.5 -22s-9.5 -20.334 -28.5 -41.001l-78 -84.5c-33 -35.667 -60.833 -68.834 -83.5 -99.501c66 -6.66699 118.5 -23.667 157.5 -51s58.5 -57.666 58.5 -90.999zM216.999 117.998c36 0 73.001 13.999 111.001 41.999s57 54.5 57 79.5s-14.667 46.333 -44 64
s-69 29.834 -119 36.501c-39.333 -60.667 -59 -114 -59 -160c0 -20.667 5.16699 -36.167 15.5 -46.5s23.166 -15.5 38.499 -15.5z" />
    <glyph glyph-name="seven" unicode="7" horiz-adv-x="468" 
d="M179 24c-8 -9.33301 -15.501 -13.999 -22.501 -13.999s-14.667 5.5 -23 16.5s-12.833 22.833 -13.5 35.5c-2 21.333 33.833 100.166 107.5 236.499s110.5 211.833 110.5 226.5c0 8.66699 -10.667 13 -32 13s-53.666 -3.66699 -96.999 -11s-71.5 -11 -84.5 -11
s-27.667 10 -44 30s-24.5 35.667 -24.5 47c0 7.33301 26.667 14.833 80 22.5s106.333 11.5 159 11.5s85.167 -4.33301 97.5 -13s23 -23.334 32 -44.001s12.5 -38 10.5 -52c-7.33301 -26 -19.5 -55.333 -36.5 -88l-33 -63.5l-25.5 -48.5l-27.5 -52.5l-34 -66.5l-38.5 -74
l-31.5 -56.5c-11.667 -20.333 -21.5 -35.166 -29.5 -44.499z" />
    <glyph glyph-name="eight" unicode="8" horiz-adv-x="624" 
d="M563.5 638c26.333 -20 39.4971 -45.8359 39.4971 -77.5029s-16.333 -65.167 -49 -100.5s-78.334 -75.666 -137.001 -120.999c56.667 -52 85 -96.667 85 -134c0 -45.333 -28 -86.666 -84 -123.999s-111 -56 -165 -56c-29.333 0 -58.666 11 -87.999 33s-44 47.167 -44 75.5
s15 59.333 45 93s72.333 72.834 127 117.501l-26.5 20.5l-27.5 21.5l-25.5 20c-11 8.66699 -19.5 15.667 -25.5 21l-21.5 19c-8.33301 7.33301 -14.666 13.666 -18.999 18.999l-13.5 17c-8.66699 12 -13 23.167 -13 33.5s1.83301 20.5 5.5 30.5s8.16699 15 13.5 15
c6 0 19.667 -10.667 41 -32c24.667 -22 56.334 -47.667 95.001 -77l78 -60c54 42 94.667 76.167 122 102.5s41 48.833 41 67.5s-15.167 28 -45.5 28s-65.666 -7.16699 -105.999 -21.5s-64.833 -21.5 -73.5 -21.5s-20.5 5.16699 -35.5 15.5s-22.5 20.5 -22.5 30.5
c0 18.667 24 35.834 72 51.501s96.333 23.5 145 23.5s86.167 -10 112.5 -30zM412.997 217.997c0 16.667 -18.667 41.333 -56 74c-50 -38.667 -87.667 -70.167 -113 -94.5s-38 -45.166 -38 -62.499c0 -10.667 4.33301 -19.834 13 -27.501s19.667 -11.5 33 -11.5
c34.667 0 70.167 12.5 106.5 37.5s54.5 53.167 54.5 84.5z" />
    <glyph glyph-name="nine" unicode="9" horiz-adv-x="518" 
d="M329 305c-43.333 -33.333 -81.998 -50 -115.998 -50s-65 13.667 -93 41s-42 57.666 -42 90.999s12.333 73 37 119s56.667 85.333 96 118s77 49 113 49s63.833 -11.5 83.5 -34.5s29.5 -49.5 29.5 -79.5c0 -18 -2.66699 -36 -8 -54
c31.333 -7.33301 37.666 -37.666 18.999 -90.999l-24.5 -64c-9.66699 -24.667 -17.334 -45.5 -23.001 -62.5s-11.5 -36.833 -17.5 -59.5s-11.167 -43.167 -15.5 -61.5l-13 -55.5l-11.5 -48.5l-9 -36.5c-6.66699 -22.667 -13.667 -34 -21 -34
c-10.667 0.666992 -18.5 10.167 -23.5 28.5s-6.16699 47.5 -3.5 87.5s17 105.667 43 197zM173.502 337.5c9.66699 -8.33301 20.3311 -12.501 31.998 -12.501s22 1.5 31 4.5s17 6 24 9s14.833 8.5 23.5 16.5l20 18.5c4.66699 4.33301 11.334 11.833 20.001 22.5
s14.334 17.834 17.001 21.501l17 24c8.66699 12.333 13.667 19.166 15 20.499c-12 2.66699 -18 8.66699 -18 18c0 6 1.5 16.167 4.5 30.5s4.5 26.833 4.5 37.5c0 30 -11.667 45 -35 45c-34 0 -70.833 -27.333 -110.5 -82s-59.5 -100.667 -59.5 -138
c0 -15.333 4.83301 -27.166 14.5 -35.499z" />
    <glyph glyph-name="colon" unicode=":" horiz-adv-x="246" 
d="M148.5 380.5c-20.333 25.667 -30.5 46.001 -30.5 61.001s4.66699 30 14 45s18.666 22.5 27.999 22.5c14.667 0 29.667 -18.167 45 -54.5s23 -64.833 23 -85.5c0 -6.66699 -2.5 -12.834 -7.5 -18.501s-11.167 -8.5 -18.5 -8.5c-15.333 0 -33.166 12.833 -53.499 38.5z
M68.5 31.501c-20.333 25.667 -30.5 46.001 -30.5 61.001s4.66699 30 14 45s18.666 22.5 27.999 22.5c15.333 0 30.666 -18.167 45.999 -54.5s23 -64.833 23 -85.5c0 -6.66699 -2.66699 -12.834 -8 -18.501s-11.666 -8.5 -18.999 -8.5c-15.333 0 -33.166 12.833 -53.499 38.5
z" />
    <glyph glyph-name="semicolon" unicode=";" horiz-adv-x="306" 
d="M3 -192c-14.667 0 -22 4.66699 -22 14c0 5.33301 5.5 13.166 16.5 23.499l35.5 32c12.667 11 24.5 26 35.5 45s16.5 36 16.5 51s-3.16699 25.667 -9.5 32s-13.166 10.833 -20.499 13.5c-20 7.33301 -30 17.333 -30 30c0 10.667 5.83301 21.667 17.5 33s23.167 17 34.5 17
c23.333 0 43.666 -9.16699 60.999 -27.5s26 -40.166 26 -65.499c0 -46 -19.667 -90.5 -59 -133.5s-73.333 -64.5 -102 -64.5zM158.5 380.5c-20.333 25.667 -30.5 46.001 -30.5 61.001s4.66699 30 14 45s18.666 22.5 27.999 22.5c15.333 0 30.666 -18.167 45.999 -54.5
s23 -64.833 23 -85.5c0 -6.66699 -2.66699 -12.834 -8 -18.501s-11.666 -8.5 -18.999 -8.5c-15.333 0 -33.166 12.833 -53.499 38.5z" />
    <glyph glyph-name="less" unicode="&#x3c;" horiz-adv-x="547" 
d="M497 535c14 0 25.166 -4.99805 33.499 -14.998s12.5 -18.167 12.5 -24.5s-1.66699 -11.5 -5 -15.5c-4 -3.33301 -26.167 -12.5 -66.5 -27.5s-97.333 -39.833 -171 -74.5s-110.5 -59.334 -110.5 -74.001c0 -13.333 48.667 -44 146 -92s146 -77.667 146 -89
c0 -13.333 -11.667 -20 -35 -20s-63.833 11.667 -121.5 35s-111.5 50.666 -161.5 81.999s-75 56 -75 74c0 10 3.83301 22.833 11.5 38.5s15.167 26.5 22.5 32.5c33.333 28 95.833 63.333 187.5 106s153.834 64 186.501 64z" />
    <glyph glyph-name="equal" unicode="=" horiz-adv-x="626" 
d="M567 275c0 -12 -14.833 -21.9971 -44.5 -29.9971s-76.5 -17 -140.5 -27c-124.667 -19.333 -221 -29 -289 -29c-8 0.666992 -16 7 -24 19s-12 22.333 -12 31c0 11.333 63.833 24.166 191.5 38.499s212.667 21.166 255 20.499s63.5 -8.33398 63.5 -23.001zM594 460.003
c0 -9.33301 -10.667 -16.668 -32 -22.001s-50 -10.666 -86 -15.999l-67 -10c-140.667 -18 -236 -27 -286 -27c-8 0 -15.833 6 -23.5 18s-11.5 22.333 -11.5 31c0 15.333 57 28.333 171 39s198.333 15.667 253 15s82 -10 82 -28z" />
    <glyph glyph-name="greater" unicode="&#x3e;" horiz-adv-x="555" 
d="M155 535c44 0 98.001 -17.168 162.001 -51.501s114.333 -70.166 151 -107.499c20.667 -20.667 31 -39.667 31 -57c0 -10 -3 -18.167 -9 -24.5l-15.5 -16c-4.33301 -4.33301 -10.5 -9.16602 -18.5 -14.499c-22.667 -15.333 -42.334 -27.5 -59.001 -36.5l-44 -23.5
c-123.333 -68.667 -203.333 -103 -240 -103c-18.667 0 -28 6 -28 18c0 13.333 26.667 35.666 80 66.999s106.833 61.166 160.5 89.499s80.5 45.833 80.5 52.5c0 14 -27.167 36.333 -81.5 67s-98.5 51 -132.5 61c-12.667 4 -25.667 13.833 -39 29.5s-20 27.834 -20 36.501
s7.33301 13 22 13z" />
    <glyph glyph-name="question" unicode="?" horiz-adv-x="513" 
d="M161 27c-20 20 -29.999 37 -29.999 51s5.16699 27.5 15.5 40.5s21.166 19.5 32.499 19.5s24.833 -15.833 40.5 -47.5s23.5 -55.5 23.5 -71.5c0 -4 -3.16699 -8.66699 -9.5 -14s-12.5 -8 -18.5 -8c-16 0 -34 10 -54 30zM248.001 636l3.99902 -29
c0 -3.33301 -2.16699 -7.66602 -6.5 -12.999s-13.5 -8 -27.5 -8c-7.33301 0 -16.833 7.5 -28.5 22.5s-17.5 27.833 -17.5 38.5c0 36.667 16.167 69.167 48.5 97.5s70 42.5 113 42.5s79.5 -13.833 109.5 -41.5s45 -64.5 45 -110.5c0 -26.667 -9.16699 -55 -27.5 -85
s-39.166 -56.667 -62.499 -80c-66.667 -66.667 -108.167 -119.667 -124.5 -159s-27 -61.333 -32 -66s-9.83301 -7 -14.5 -7c-16.667 0 -25 20 -25 60c0 42 24 88.667 72 140l60 64c48.667 49.333 73 92.666 73 129.999c0 22 -7.83301 39.833 -23.5 53.5
s-34.167 20.5 -55.5 20.5s-40 -6.66699 -56 -20s-24 -30 -24 -50z" />
    <glyph glyph-name="at" unicode="@" horiz-adv-x="1323" 
d="M1105 382c0 -54 -14.1719 -107.667 -42.5049 -161s-63.833 -96.333 -106.5 -129s-84 -49 -124 -49c-24.667 0 -44.5 8.5 -59.5 25.5s-23.833 38.5 -26.5 64.5c-61.333 -67.333 -119.666 -101 -174.999 -101c-31.333 0 -60.333 12.667 -87 38s-40 55 -40 89
s13.333 78.167 40 132.5s63.334 103.5 110.001 147.5s93.667 66 141 66c34 0 65.667 -18 95 -54s44 -68.5 44 -97.5s-5 -53.5 -15 -73.5c1.33301 -4 1.33301 -7.66699 0 -11c-14.667 -26 -24.167 -50.667 -28.5 -74s-4.16602 -41.166 0.500977 -53.499
s11.667 -18.5 21 -18.5c33.333 0 69.333 26.333 108 79s58 114 58 184s-17.5 127 -52.5 171s-87 66 -156 66s-134.833 -16 -197.5 -48s-116.167 -72.667 -160.5 -122s-80.166 -104.333 -107.499 -165s-41 -121.167 -41 -181.5s19.833 -109.333 59.5 -147
s95.5 -56.5 167.5 -56.5c52.667 0 93.834 3.83301 123.501 11.5s52.5 14.167 68.5 19.5l39.5 13.5c10.333 3.66699 19.5 6.5 27.5 8.5c14.667 4 22 -0.333008 22 -13c0 -20 -15.333 -39.5 -46 -58.5s-67.667 -34 -111 -45s-84.333 -16.5 -123 -16.5
c-87.333 0 -162.833 28.167 -226.5 84.5s-95.5 124.166 -95.5 203.499c0 64 15.333 131 46 201s71.667 134.333 123 193s114.5 107 189.5 145s152.833 57 233.5 57c94.667 0 169 -30.5 223 -91.5s81 -138.833 81 -233.5zM570.995 108c36.667 0 77.832 22.166 123.499 66.499
s76.834 90.833 93.501 139.5c4 12.667 9.66699 20 17 22c-6 28 -14.167 50 -24.5 66s-25.5 24 -45.5 24c-30 0 -62.167 -17.667 -96.5 -53s-62 -74.166 -83 -116.499s-31.5 -74 -31.5 -95s3.66699 -35.167 11 -42.5s19.333 -11 36 -11z" />
    <glyph glyph-name="A" unicode="A" horiz-adv-x="590" 
d="M555 334c0 -10.667 -27.333 -23.668 -82 -39.001c6.66699 -70 9.33398 -122 8.00098 -156c-1.33301 -83.333 -12 -125 -32 -125c-12.667 0 -21.667 7 -27 21c-9.33301 26 -14.833 49.833 -16.5 71.5l-4.5 57.5c-1.33301 16.667 -2.83301 37.167 -4.5 61.5
s-2.83398 40.5 -3.50098 48.5c-58.667 -14.667 -100.667 -25.5 -126 -32.5l-49 -13.5c-30 -76 -52.667 -130.667 -68 -164s-27.833 -50 -37.5 -50s-20.5 5.83301 -32.5 17.5s-18 23.834 -18 36.501c0 5.33301 19 50.666 57 135.999c-13.333 0 -24.833 3.66699 -34.5 11
s-14.5 17 -14.5 29s28.667 27.667 86 47c8.66699 19.333 17.5 40.333 26.5 63s27 64.5 54 125.5s43.667 100.667 50 119s18.333 33.333 36 45s35.5 17.5 53.5 17.5c20 0 37.833 -29.667 53.5 -89s28.167 -131.666 37.5 -216.999c16 1.33301 27 2 33 2
c36.667 0 55 -7.66699 55 -23zM253 317.999c40 10 84.333 19.001 133 27.001c-8 75.333 -19 147 -33 215c-32 -70.667 -65.333 -151.334 -100 -242.001z" />
    <glyph glyph-name="B" unicode="B" horiz-adv-x="585" 
d="M177 553c-11.333 0 -23.167 7.50293 -35.5 22.5029s-18.5 26.833 -18.5 35.5c0 10.667 13.667 20 41 28s60 12 98 12c86.667 0 153.334 -12 200.001 -36s70 -57.667 70 -101c0 -35.333 -15 -67.5 -45 -96.5s-73.333 -52.833 -130 -71.5
c54.667 -5.33301 98.167 -19.333 130.5 -42s48.5 -47.334 48.5 -74.001c0 -36.667 -19 -71.834 -57 -105.501s-87.5 -60.667 -148.5 -81s-123.5 -30.5 -187.5 -30.5c-38.667 0 -71.834 10 -99.501 30s-41.5 39.167 -41.5 57.5s6.33301 27.5 19 27.5
c3.33301 0 15.333 -6.66699 36 -20s43.667 -20.333 69 -21c-24 15.333 -36.333 33.666 -37 54.999c0 9.33301 7.66699 38 23 86c46 144.667 69.667 253 71 325h-6zM412.499 553.003c-20.333 10.667 -45 16.001 -74 16.001s-60.167 -3 -93.5 -9c13.333 -16 20 -31.667 20 -47
s-10.333 -63.333 -31 -144c12 6 30.667 14 56 24c60 20.667 100.5 39.167 121.5 55.5s31.5 35.166 31.5 56.499s-10.167 37.333 -30.5 48zM449.999 234.004c0 17.333 -20.668 32.167 -62.001 44.5s-83.666 18.5 -126.999 18.5c-13.333 0 -27 6.33301 -41 19
c-3.33301 -13.333 -8.66602 -33 -15.999 -59l-27.5 -99c-11 -40 -18.833 -63.333 -23.5 -70c69.333 4 136.166 21 200.499 51s96.5 61.667 96.5 95z" />
    <glyph glyph-name="C" unicode="C" horiz-adv-x="572" 
d="M502 623.5c18 -20.333 26.998 -37.502 26.998 -51.502s-4.66699 -21 -14 -21c-4.66699 0 -13.167 2.33301 -25.5 7s-24.5 7 -36.5 7c-23.333 0 -52.166 -11.833 -86.499 -35.5s-67 -53 -98 -88s-57.5 -75.5 -79.5 -121.5s-33 -88.667 -33 -128
c0 -25.333 8.83301 -46.166 26.5 -62.499s43 -24.5 76 -24.5s68 6.33301 105 19s67.333 25.334 91 38.001s38.834 19 45.501 19c11.333 0 17 -7.16699 17 -21.5s-14.333 -32.833 -43 -55.5s-64.5 -43 -107.5 -61s-81.833 -27 -116.5 -27c-44.667 0 -87.167 19 -127.5 57
s-60.5 78.333 -60.5 121c0 57.333 19.5 122 58.5 194s89.167 134.333 150.5 187s120.333 79 177 79c18 0 36 -10.167 54 -30.5z" />
    <glyph glyph-name="D" unicode="D" horiz-adv-x="605" 
d="M133 654c42 0 87.498 -8.66504 136.498 -25.998s94.333 -40.333 136 -69s76.5 -64 104.5 -106s42 -85 42 -129c0 -28.667 -15.667 -61.5 -47 -98.5s-69 -70.667 -113 -101s-90.667 -56 -140 -77s-90.666 -31.5 -123.999 -31.5c-12.667 0 -26.5 9.83301 -41.5 29.5
s-22.5 39.667 -22.5 60s17.333 91.166 52 212.499s53.334 204.666 56.001 249.999c-18 8 -32.667 18.333 -44 31s-17 24 -17 34c0 14 7.33301 21 22 21zM463.998 331.002c0 38.667 -22.333 80.332 -67 124.999s-95 75.667 -151 93c2.66699 -13.333 4 -23.333 4 -30
c0 -24.667 -22.333 -115 -67 -271c-0.666992 -2.66699 -1.66699 -6 -3 -10c-13.333 -37.333 -23 -81.666 -29 -132.999c42 6.66699 88.167 24.667 138.5 54s92 60.5 125 93.5s49.5 59.167 49.5 78.5z" />
    <glyph glyph-name="E" unicode="E" horiz-adv-x="552" 
d="M242 373l175.998 8.99902c25.333 0 38 -5.33301 38 -16c0 -43.333 -85.667 -65 -257 -65c-34.667 -108 -52 -170.333 -52 -187c0 -13.333 7.66699 -20 23 -20c73.333 0 153.333 11 240 33c29.333 7.33301 46.333 11 51 11c11.333 0 17 -7.33301 17 -22
c0 -24 -34.667 -47.167 -104 -69.5s-137 -33.5 -203 -33.5c-29.333 0 -55.333 8.33301 -78 25s-34 37.5 -34 62.5s9.33301 67.5 28 127.5s37.334 123.833 56.001 191.5s28 124.5 28 170.5c0 10.667 2 19 6 25c12.667 22.667 82.167 34 208.5 34s189.5 -10 189.5 -30
c0 -13.333 -13.667 -22.333 -41 -27c-21.333 -4 -51.166 -7.33301 -89.499 -10s-63.5 -4.66699 -75.5 -6s-50 -6.66602 -114 -15.999v-2c0 -44 -11.667 -105.667 -35 -185h22z" />
    <glyph glyph-name="F" unicode="F" horiz-adv-x="493" 
d="M215 360l168.003 9c25.333 0 38 -5.66699 38 -17c0 -18 -26.333 -33.167 -79 -45.5s-112 -18.5 -178 -18.5c-41.333 -165.333 -66.333 -254.333 -75 -267c-2.66699 -3.33301 -5 -5 -7 -5c-9.33301 0 -20.666 8.66699 -33.999 26s-19.333 32.5 -18 45.5
s19.666 87.833 54.999 224.5s53.666 229.334 54.999 278.001c0 6.66699 1 12.667 3 18c3.33301 14 20.333 24.333 51 31s83 10 157 10c120 0 180 -11.333 180 -34c0 -14 -27 -24 -81 -30c-12.667 -1.33301 -32.334 -3 -59.001 -5s-61.334 -5.33301 -104.001 -10
s-66 -7 -70 -7v-6c0 -30.667 -11.667 -96.334 -35 -197.001h33z" />
    <glyph glyph-name="G" unicode="G" horiz-adv-x="562" 
d="M421 324c22.667 0 41.3301 -9.16797 55.9971 -27.501s22 -40 22 -65s-16 -83.333 -48 -175s-56.333 -137.5 -73 -137.5c-9.33301 0 -16.666 2.83301 -21.999 8.5s-8 13.167 -8 22.5s3.66699 25.166 11 47.499l31 91.5c13.333 38.667 24.666 74 33.999 106
c-31.333 -54.667 -66.166 -98.167 -104.499 -130.5s-76.5 -48.5 -114.5 -48.5s-75.167 16.833 -111.5 50.5s-54.5 70.5 -54.5 110.5c0 62 19.167 130.333 57.5 205s87.666 138.667 147.999 192s118.5 80 174.5 80c18.667 0 36.834 -10.5 54.501 -31.5s26.5 -38.333 26.5 -52
s-5 -20.5 -15 -20.5c-4.66699 0 -12.667 2.5 -24 7.5s-22.666 7.5 -33.999 7.5c-36 0 -77.333 -20 -124 -60s-87.167 -90.5 -121.5 -151.5s-51.5 -117.833 -51.5 -170.5c0 -24.667 7.33301 -44.667 22 -60s34 -23 58 -23s54.833 15.333 92.5 46
s72.834 69.334 105.501 116.001c-34 -9.33301 -58 -14 -72 -14s-27.833 4.83301 -41.5 14.5s-20.5 18.834 -20.5 27.501c0 22.667 49 34 147 34z" />
    <glyph glyph-name="H" unicode="H" horiz-adv-x="618" 
d="M105 16c-8.66699 0 -19.5 7.49609 -32.5 22.4961s-19.5 30 -19.5 45s14 74.833 42 179.5c-8.66699 3.33301 -16 8.83301 -22 16.5s-9 16.167 -9 25.5c0 7.33301 16.333 16 49 26c41.333 154.667 62 252 62 292c0 10.667 1.5 18.334 4.5 23.001s9.16699 7 18.5 7
s21 -9.33301 35 -28s21 -38.667 21 -60s-15.667 -92 -47 -212c86.667 16 166.667 26.333 240 31c32 120.667 48 200.334 48 239.001c0 10.667 1.5 18.334 4.5 23.001s9.16699 7 18.5 7s21 -9.16699 35 -27.5s21 -38 21 -59s-13.667 -82.5 -41 -184.5
c27.333 -4.66699 41 -13.167 41 -25.5s-18.667 -22.166 -56 -29.499l-23.5 -85.5l-17 -61.5l-17.5 -64.5l-14 -49.5c-9.33301 -33.333 -17 -50 -23 -50c-10 0 -21 6.5 -33 19.5s-18 27 -18 42s19 93.833 57 236.5c-68.667 -8 -150 -21.667 -244 -41
c-32.667 -120 -51.667 -188.667 -57 -206c-9.33301 -34 -17 -51 -23 -51z" />
    <glyph glyph-name="I" unicode="I" horiz-adv-x="281" 
d="M162 623c0 11.333 1.33203 19.168 3.99902 23.501s8.66699 6.5 18 6.5s21.5 -9.33301 36.5 -28s22.5 -37 22.5 -55c0 -32.667 -21.333 -134.334 -64 -305.001l-17.5 -71l-17 -69.5c-4.33301 -17.667 -9.16602 -35.834 -14.499 -54.501
c-10.667 -36 -19.334 -54 -26.001 -54c-9.33301 0 -20.166 6.83301 -32.499 20.5s-18.5 26.834 -18.5 39.501s18.167 97.5 54.5 254.5s54.5 254.5 54.5 292.5z" />
    <glyph glyph-name="J" unicode="J" horiz-adv-x="452" 
d="M29 179c6 0 16.3311 -7.66992 30.998 -23.0029c45.333 -44.667 85.333 -67 120 -67c18 0 36.333 22 55 66s43.5 120.167 74.5 228.5s56.167 178.833 75.5 211.5c-27.333 -4 -65.166 -12 -113.499 -24s-77.833 -18 -88.5 -18c-24.667 0 -37 8 -37 24
c0 20.667 38.667 41.667 116 63s134 32 170 32c12 0 22.5 -2.66699 31.5 -8s13.5 -12.666 13.5 -21.999s-3.66699 -25.666 -11 -48.999s-18 -53.666 -32 -90.999c-18 -50.667 -43.5 -127.834 -76.5 -231.501s-59.167 -172 -78.5 -205s-49.166 -49.5 -89.499 -49.5
s-80.5 16.833 -120.5 50.5s-60 60.834 -60 81.501s6.66699 31 20 31z" />
    <glyph glyph-name="K" unicode="K" horiz-adv-x="547" 
d="M529.5 636.5c11 -7.66699 16.5 -15.668 16.5 -24.001s-17.167 -28.333 -51.5 -60l-126 -118c-49.667 -47 -87.5 -89.167 -113.5 -126.5c0 -24.667 6.66699 -51.667 20 -81c22 -48.667 67 -89 135 -121c29.333 -14 52.5 -25.833 69.5 -35.5s25.5 -19.834 25.5 -30.501
c0 -16 -13.667 -24 -41 -24c-48.667 0 -102.167 20.833 -160.5 62.5s-95.833 96.5 -112.5 164.5c-14.667 -25.333 -38.667 -86.333 -72 -183c-8.66699 -29.333 -16 -44 -22 -44c-9.33301 0 -20.5 7.5 -33.5 22.5s-19.5 29.833 -19.5 44.5s20.333 98.667 61 252
s61 249.333 61 288c0 10.667 1.5 18.334 4.5 23.001s9.16699 7 18.5 7s21 -9.16699 35 -27.5s21 -39.5 21 -63.5s-16.333 -96.333 -49 -217c56.667 76.667 115.5 146.334 176.5 209.001s101.167 94 120.5 94c13.333 0 25.5 -3.83301 36.5 -11.5z" />
    <glyph glyph-name="L" unicode="L" horiz-adv-x="496" 
d="M262 587c0 -45.333 -26.668 -152.333 -80.001 -321c-26.667 -88.667 -40 -139.5 -40 -152.5s7.66699 -19.5 23 -19.5c76 0 152.667 10 230 30c26.667 7.33301 42.334 11 47.001 11c11.333 0 17 -5.66699 17 -17c0 -24.667 -32.5 -48.334 -97.5 -71.001
s-130.167 -34 -195.5 -34c-29.333 0 -55.5 8.33301 -78.5 25s-34.5 37 -34.5 61s21.333 107.833 64 251.5s64 236.167 64 277.5c0 10.667 1.5 18.334 4.5 23.001s9.33301 7 19 7s21.667 -7.66699 36 -23s21.5 -31.333 21.5 -48z" />
    <glyph glyph-name="M" unicode="M" horiz-adv-x="733" 
d="M650 627c13.333 11.333 24.6719 16.9971 34.0049 16.9971s20.166 -6.16699 32.499 -18.5s18.5 -23.833 18.5 -34.5s-1.16699 -22.834 -3.5 -36.501s-6.5 -31.667 -12.5 -54l-16.5 -59.5l-22.5 -77.5l-25.5 -89c-7 -25 -16.667 -63.667 -29 -116s-22 -89.166 -29 -110.499
s-13.833 -32 -20.5 -32c-9.33301 0 -18.333 7.16699 -27 21.5s-13 34 -13 59s10.5 82.833 31.5 173.5s43.5 166 67.5 226l-53.5 -65.5l-46.5 -56.5l-38 -46.5c-13.333 -16.333 -24.333 -29.333 -33 -39l-26.5 -30c-9 -10.333 -16.5 -18.166 -22.5 -23.499
s-12.333 -10.333 -19 -15c-10 -8.66699 -19.833 -13 -29.5 -13s-20.334 3.33301 -32.001 10s-20.834 14.667 -27.501 24c-15.333 24 -43.666 84.333 -84.999 181l-40 -144.5l-27.5 -97.5l-18.5 -65c-4.66699 -16 -10 -32.333 -16 -49c-10.667 -33.333 -19 -50 -25 -50
c-8 0 -17.833 7.5 -29.5 22.5s-17.5 29.833 -17.5 44.5s20.333 98.667 61 252s61 249.333 61 288c0 10.667 1.5 18.334 4.5 23.001s8.66699 7 17 7s22.166 -8 41.499 -24s29.666 -30.667 30.999 -44c6 -49.333 42.667 -144.666 110 -285.999l124 151.5l101.5 124
c20.333 23.667 37.166 41.167 50.499 52.5z" />
    <glyph glyph-name="N" unicode="N" horiz-adv-x="637" 
d="M442 16c-8.66699 0 -18.668 4.5 -30.001 13.5s-20.166 19.833 -26.499 32.5s-19.666 43 -39.999 91l-68 161l-53.5 126l-60.5 -228c-23 -87.333 -38 -141.833 -45 -163.5s-14.667 -32.5 -23 -32.5s-18.666 7.5 -30.999 22.5s-18.5 29.833 -18.5 44.5
s20.333 98.667 61 252s61 249.333 61 288c0 10.667 1.5 18.334 4.5 23.001s8.5 7 16.5 7s18.333 -5.83301 31 -17.5s21.167 -22.834 25.5 -33.501l42.5 -102c59.333 -144.667 108.666 -260.334 147.999 -347.001c20.667 56.667 37.167 113.5 49.5 170.5
s19.833 103.5 22.5 139.5c7.33301 96 13.166 152 17.499 168s12.5 24 24.5 24s25 -7.83301 39 -23.5s21 -30.167 21 -43.5c0.666992 -52 -6.83301 -122.667 -22.5 -212s-37.167 -171.666 -64.5 -246.999s-54.333 -113 -81 -113z" />
    <glyph glyph-name="O" unicode="O" horiz-adv-x="563" 
d="M425 530.5c-16.667 27.667 -35.333 41.502 -56 41.502s-44.167 -11.333 -70.5 -34s-51.5 -51 -75.5 -85s-44.667 -73.833 -62 -119.5s-26 -87.334 -26 -125.001s6.66699 -66.5 20 -86.5s30 -30 50 -30c30 0 64.333 17.833 103 53.5s72 79.167 100 130.5
s42 99.666 42 144.999s-8.33301 81.833 -25 109.5zM51.001 193.002c0 56.667 9.99902 113.498 29.999 170.498s45.167 106.5 75.5 148.5s64 76.167 101 102.5s71.5 39.5 103.5 39.5c50 0 91.833 -23 125.5 -69s50.5 -98.167 50.5 -156.5s-15.333 -119.166 -46 -182.499
s-72.667 -117.5 -126 -162.5s-108.666 -67.5 -165.999 -67.5c-40 0 -74.667 19.333 -104 58s-44 78.334 -44 119.001z" />
    <glyph glyph-name="P" unicode="P" horiz-adv-x="499" 
d="M502 501c0 -65.333 -31.3301 -121.001 -93.9971 -167.001s-145.334 -79 -248.001 -99c-4.66699 -15.333 -10.834 -36.666 -18.501 -63.999l-17.5 -62c-4 -14 -8.66699 -29.333 -14 -46c-10 -30.667 -17.667 -46 -23 -46c-9.33301 0 -19.833 6.66699 -31.5 20
s-17.5 26.833 -17.5 40.5s17.167 82 51.5 205s53.5 213.833 57.5 272.5c-14.667 16 -22 30 -22 42c0 15.333 20.667 29.833 62 43.5s80.666 20.5 117.999 20.5c59.333 0 107 -14.333 143 -43s54 -67.667 54 -117zM420.003 489.999c0 27.333 -10 48.833 -30 64.5
s-44 23.5 -72 23.5s-60.333 -7.33301 -97 -22c4 -9.33301 6 -18.333 6 -27c0 -38.667 -15 -111.334 -45 -218.001c72 18.667 129.667 44.334 173 77.001s65 66.667 65 102z" />
    <glyph glyph-name="Q" unicode="Q" horiz-adv-x="618" 
d="M495.5 584c39 -46.667 58.5 -99.332 58.5 -157.999s-15.167 -119.834 -45.5 -183.501s-69.833 -116.167 -118.5 -157.5c8 -22.667 18.333 -49.667 31 -81c24.667 -61.333 37 -97.333 37 -108c0 -14.667 -8 -22 -24 -22c-28 0 -63.667 56.667 -107 170
c-36 -18.667 -74.667 -28 -116 -28s-78.333 18.333 -111 55s-49 77.334 -49 122.001c0 75.333 15.833 149.166 47.5 221.499s71.667 130.333 120 174s96.833 65.5 145.5 65.5s92.5 -23.333 131.5 -70zM437.5 290.502c19.667 45 29.5 88.667 29.5 131s-11 78 -33 107
s-45 43.5 -69 43.5c-10 0 -22 -2.66699 -36 -8c-10.667 -19.333 -16 -48.333 -16 -87c0 -100 16 -201.667 48 -305c31.333 34 56.833 73.5 76.5 118.5zM222 92.002c24.667 0 50.666 9.00195 77.999 27.002c-43.333 131.333 -65 236.666 -65 315.999
c0 21.333 1.33301 39 4 53c-30 -39.333 -54.833 -84.833 -74.5 -136.5s-29.5 -97.834 -29.5 -138.501s8.33301 -71 25 -91s37.334 -30 62.001 -30z" />
    <glyph glyph-name="R" unicode="R" horiz-adv-x="523" 
d="M87 17c-9.33301 0 -19.835 6.66602 -31.502 19.999s-17.5 26.833 -17.5 40.5s16.833 80.334 50.5 200.001s52.834 208.834 57.501 267.501c-8 6 -15.5 14.5 -22.5 25.5s-10.5 19.833 -10.5 26.5c0 14 21 28.5 63 43.5s81.667 22.5 119 22.5
c63.333 0 113.5 -11.667 150.5 -35s55.5 -57.333 55.5 -102c0 -29.333 -8.5 -57 -25.5 -83s-37.5 -47.333 -61.5 -64s-48.167 -31.167 -72.5 -43.5l-62 -30.5c-17 -8 -25.5 -14 -25.5 -18c0 -21.333 40.667 -67.333 122 -138c8 -7.33301 18.333 -16.166 31 -26.499l31 -26
l24 -21.5c16.667 -14.667 25 -26.334 25 -35.001c0 -15.333 -10.333 -23 -31 -23c-33.333 0 -84.166 30.833 -152.499 92.5s-112.5 115.167 -132.5 160.5c-18 -60 -31 -104.833 -39 -134.5s-14.667 -52.834 -20 -69.501c-10.667 -32.667 -19 -49 -25 -49zM226.998 528.999
c0 -34.667 -13 -100.333 -39 -197c8.66699 6 36 20.667 82 44s82.167 47 108.5 71s39.5 50.667 39.5 80c0 34 -32.667 51 -98 51c-28 0 -61 -7 -99 -21c4 -8.66699 6 -18 6 -28z" />
    <glyph glyph-name="S" unicode="S" horiz-adv-x="490" 
d="M371 66.5c-45.333 -33.667 -97.502 -50.4961 -156.502 -50.4961s-107 15.167 -144 45.5s-55.5 58.833 -55.5 85.5c0 18.667 6.33301 28 19 28c10.667 0 30 -14 58 -42c10.667 -10.667 24.834 -20.334 42.501 -29.001s36.167 -13 55.5 -13c44 0 82 10.667 114 32
s48 45 48 71c0 29.333 -34.667 74.333 -104 135c-25.333 22.667 -48.833 47.167 -70.5 73.5s-32.5 47.166 -32.5 62.499s3 31.333 9 48s12.667 28.667 20 36c24.667 26 61.334 50 110.001 72s90.334 33 125.001 33c18 0 33.333 -5.83301 46 -17.5s19 -23.834 19 -36.501
c0 -6.66699 -6.5 -11.667 -19.5 -15s-32.5 -7.83301 -58.5 -13.5s-49 -12.5 -69 -20.5c-67.333 -28 -101 -54 -101 -78c0 -8 11.167 -22.833 33.5 -44.5l73 -68c26.333 -23.667 50.666 -51.334 72.999 -83.001s33.5 -60.167 33.5 -85.5c0 -50 -22.667 -91.833 -68 -125.5z
" />
    <glyph glyph-name="T" unicode="T" horiz-adv-x="459" 
d="M232 570l-160 -7.00098c-10 0 -20.833 7.16699 -32.5 21.5s-17.5 27.333 -17.5 39s19.833 18.834 59.5 21.501s123.834 4 252.501 4c54.667 0 101.5 -7.33301 140.5 -22s58.5 -29.667 58.5 -45c0 -12.667 -21 -18.667 -63 -18c-84 4 -137 6.33301 -159 7
c1.33301 -6.66699 2 -11.667 2 -15c0 -35.333 -29 -160.666 -87 -375.999l-17 -65.5l-13 -48.5c-10 -32.667 -18.333 -49 -25 -49c-8.66699 0 -18.834 6.66699 -30.501 20s-17.5 27.166 -17.5 41.499s16.667 86 50 215s53 221.167 59 276.5z" />
    <glyph glyph-name="U" unicode="U" horiz-adv-x="543" 
d="M194 628c16 -17.333 24.001 -36.833 24.001 -58.5s-12.833 -77.834 -38.5 -168.501s-38.5 -153.334 -38.5 -188.001s5.66699 -62.167 17 -82.5s27.333 -30.5 48 -30.5c27.333 0 56.666 18.667 87.999 56s58.5 88.5 81.5 153.5s34.5 131.5 34.5 199.5
c0 34 -1.33301 61.833 -4 83.5s-4 34.834 -4 39.501c0 14.667 6.66699 22 20 22s30 -9.83301 50 -29.5s30.333 -41.167 31 -64.5c2 -93.333 -11 -182.166 -39 -266.499s-66 -151.833 -114 -202.5s-98.667 -76 -152 -76c-40 0 -74.167 18.5 -102.5 55.5
s-42.5 79.167 -42.5 126.5s13.167 121 39.5 221s39.5 168.667 39.5 206c0 20 7 30 21 30c11.333 0 25 -8.66699 41 -26z" />
    <glyph glyph-name="V" unicode="V" horiz-adv-x="484" 
d="M498 653c9.33301 0 19.1689 -3.49902 29.502 -10.499s15.5 -15.667 15.5 -26s-5.83301 -26.333 -17.5 -48s-31.667 -56.167 -60 -103.5s-52.5 -90.833 -72.5 -130.5l-57 -116.5l-42 -89l-30 -61c-19.333 -36.667 -36 -55 -50 -55
c-8.66699 0 -18.334 6.16699 -29.001 18.5s-19.334 26.166 -26.001 41.499c-16 38.667 -38.5 131.5 -67.5 278.5s-43.5 237.5 -43.5 271.5c0 20 6 30 18 30c13.333 0 27 -6.5 41 -19.5s24.667 -29.5 32 -49.5c3.33301 -11.333 12.833 -67.833 28.5 -169.5
s32.834 -185.5 51.501 -251.5c35.333 90.667 85.666 195 150.999 313s108 177 128 177z" />
    <glyph glyph-name="W" unicode="W" horiz-adv-x="773" 
d="M471 654c51.333 0 96.165 -14.834 134.498 -44.501s66.666 -67.5 84.999 -113.5s27.5 -96 27.5 -150c0 -86 -22.167 -162.5 -66.5 -229.5s-97.5 -100.5 -159.5 -100.5c-44.667 0 -80.667 21.333 -108 64s-46 99.667 -56 171c-91.333 -114 -148.333 -182.167 -171 -204.5
s-39.667 -32.5 -51 -30.5s-22.666 11.167 -33.999 27.5s-16.666 32.5 -15.999 48.5c2 37.333 10.5 116 25.5 236s22.833 216 23.5 288c0 24.667 7.5 37 22.5 37s31.833 -8 50.5 -24s27.5 -31.333 26.5 -46s-10.667 -74.5 -29 -179.5s-30.833 -191.167 -37.5 -258.5
c37.333 55.333 77.5 104.5 120.5 147.5s74.5 64.5 94.5 64.5c22 0 40 -43 54 -129c5.33301 -32 15.333 -61.333 30 -88s33.334 -40 56.001 -40c35.333 0 66.333 27.333 93 82s40 111.167 40 169.5s-12.667 108.833 -38 151.5s-56.333 64.334 -93 65.001
c-18.667 0.666992 -35.167 7.5 -49.5 20.5s-21.5 25.5 -21.5 37.5c0 18.667 15.667 28 47 28z" />
    <glyph glyph-name="X" unicode="X" horiz-adv-x="586" 
d="M520 654c8.66699 0 20.6689 -6.83301 36.002 -20.5s23 -23.834 23 -30.501s-2 -12 -6 -16s-10.333 -8.66699 -19 -14s-15.334 -10.166 -20.001 -14.499s-9 -8.66602 -13 -12.999s-8.66699 -9.83301 -14 -16.5s-10.5 -12.834 -15.5 -18.501s-11.333 -13.667 -19 -24
l-20 -27l-24 -32.5l-25.5 -35l-62 -83l78.5 -110c35 -48 60 -83.5 75 -106.5s22.5 -39 22.5 -48s-2.66699 -16.167 -8 -21.5s-11.666 -8 -18.999 -8c-16 0 -42.833 21 -80.5 63s-78.167 95 -121.5 159c-72.667 -101.333 -119.834 -163.5 -141.501 -186.5
s-40.834 -34.5 -57.501 -34.5c-10 0 -21.5 4.5 -34.5 13.5s-19.5 15.833 -19.5 20.5s0.666992 8.33398 2 11.001s2.5 4.66699 3.5 6s6.83301 7.33301 17.5 18c31.333 31.333 91 108 179 230c-92.667 148.667 -139 253 -139 313c0 17.333 6 26 18 26
c18.667 0 37 -4.66699 55 -14s27 -20 27 -32c0 -52 30.333 -125.667 91 -221c72 105.333 124 176.166 156 212.499s57 54.5 75 54.5z" />
    <glyph glyph-name="Y" unicode="Y" horiz-adv-x="528" 
d="M289 348c10 0 28.835 25.498 56.502 76.498l87 153c30.333 51 54.166 76.5 71.499 76.5c14 0 25.833 -5.16699 35.5 -15.5s14.5 -22.5 14.5 -36.5s-11.167 -39.667 -33.5 -77s-53.5 -86.833 -93.5 -148.5s-71.667 -113.167 -95 -154.5
c-54.667 -102 -89.334 -161.833 -104.001 -179.5s-27 -26.5 -37 -26.5c-16 0 -24 13 -24 39s30.333 96.333 91 211c-52 15.333 -95.833 52.333 -131.5 111s-57.5 126.334 -65.5 203.001c-3.33301 49.333 10 74 40 74c11.333 0 20.333 -9.33301 27 -28s14.667 -45.667 24 -81
s21 -67.666 35 -96.999s31 -53.333 51 -72s37 -28 51 -28z" />
    <glyph glyph-name="Z" unicode="Z" horiz-adv-x="541" 
d="M152 120c0 -9.33301 6.33105 -14.0029 18.998 -14.0029c32.667 0 85.334 5 158.001 15s120.667 15 144 15s35 -9.66699 35 -29c0 -22.667 -38.5 -43.667 -115.5 -63s-157.5 -29 -241.5 -29c-26.667 0 -51 10.333 -73 31s-33.5 41.834 -34.5 63.501
s12.167 48.334 39.5 80.001s60.666 63.5 99.999 95.5l118 95c94.667 74 141.334 123.667 140.001 149c-0.666992 7.33301 -16 13.833 -46 19.5s-58.333 8.16699 -85 7.5s-53.167 -3 -79.5 -7s-46.333 -6.16699 -60 -6.5s-27.667 7 -42 22s-21.833 29.167 -22.5 42.5
c0 11.333 13.167 21 39.5 29s68.5 12 126.5 12s113 -9 165 -27c28 -9.33301 50.833 -24 68.5 -44s26.834 -38.667 27.501 -56c0.666992 -26 -18.833 -60.833 -58.5 -104.5s-83.5 -84.5 -131.5 -122.5l-131.5 -108.5c-39.667 -34.333 -59.5 -56.166 -59.5 -65.499z" />
    <glyph glyph-name="bracketleft" unicode="[" horiz-adv-x="452" 
d="M350 708c0 -46 -39.998 -193.997 -119.998 -443.997c-43.333 -138 -65 -214.333 -65 -229c0 -13.333 8.5 -20 25.5 -20s44.167 2.16699 81.5 6.5s59 6.5 65 6.5c12 0 18 -5.66699 18 -17c0 -17.333 -20.333 -34 -61 -50s-75.834 -24 -105.501 -24
s-55.834 7.66699 -78.501 23s-34 34.833 -34 58.5s32.167 139.334 96.5 347.001s96.5 335.5 96.5 383.5c0 3.33301 0.666992 7.66602 2 12.999c4 29.333 63.667 41.666 179 36.999c64 -1.33301 95.333 -12 94 -32c0 -8 -3.16699 -13.5 -9.5 -16.5s-12 -5.33301 -17 -7
s-12.167 -3.16699 -21.5 -4.5s-18 -2.33301 -26 -3c-34 -2.66699 -74.333 -8.33398 -121 -17.001c0.666992 -2.66699 1 -6.33398 1 -11.001z" />
    <glyph glyph-name="backslash" unicode="\" horiz-adv-x="600" 
d="M475 -76c-7.33301 0 -20.666 21.666 -39.999 64.999l-93.5 219c-43 102.667 -80.833 188.167 -113.5 256.5s-58 123 -76 164s-27 68.5 -27 82.5s7 30.5 21 49.5s24.667 28.5 32 28.5c4 0 6.66699 -0.666992 8 -2s2.5 -2.33301 3.5 -3s2 -2 3 -4s1.66699 -3.66699 2 -5
s1.16602 -3.66602 2.49902 -6.99902s2.33301 -6 3 -8c212.667 -486 319 -747.333 319 -784c0 -8.66699 -5.5 -19.5 -16.5 -32.5s-20.167 -19.5 -27.5 -19.5z" />
    <glyph glyph-name="bracketright" unicode="]" horiz-adv-x="441" 
d="M400 711l-0.000976562 -6c0 -58 -15 -160.667 -45 -308s-59 -279 -87 -395c-6.66699 -27.333 -18.334 -46.833 -35.001 -58.5s-42.167 -17.5 -76.5 -17.5s-70.333 7.83301 -108 23.5s-56.5 32.167 -56.5 49.5c0 12 6.33301 18 19 18s34.5 -2.16699 65.5 -6.5
s55.333 -6.5 73 -6.5s27.834 7.66699 30.501 23c18.667 74 44.834 187.167 78.501 339.5s50.5 251.5 50.5 297.5c0 3.33301 0.666992 7 2 11c-14.667 1.33301 -27.167 2 -37.5 2s-24.333 -0.166992 -42 -0.5s-31.334 -0.333008 -41.001 0s-20.167 0.833008 -31.5 1.5
c-21.333 2 -32 9.33301 -32 22c0 30 45.333 47.167 136 51.5s136.334 -9.16699 137.001 -40.5z" />
    <glyph glyph-name="asciicircum" unicode="^" horiz-adv-x="422" 
d="M371 573c0 -12 -5.33203 -17.999 -15.999 -17.999c-24.667 0 -67.334 65.667 -128.001 197c-20 -21.333 -41 -51.5 -63 -90.5s-34.833 -60.333 -38.5 -64s-9.5 -10 -17.5 -19s-13.667 -13.167 -17 -12.5s-6 1.66699 -8 3c-16.667 15.333 -18 42.333 -4 81
c12.667 38.667 34.167 80.167 64.5 124.5s53.5 66.5 69.5 66.5c9.33301 0 20.5 -2.16699 33.5 -6.5s22 -9.33301 27 -15s9.33301 -13.167 13 -22.5s9.16699 -24.833 16.5 -46.5s20.5 -54.834 39.5 -99.501s28.5 -70.667 28.5 -78z" />
    <glyph glyph-name="underscore" unicode="_" horiz-adv-x="607" 
d="M308 -6l-224 -13.002c-8.66699 0.666992 -17.167 6.33398 -25.5 17.001s-12.5 21.5 -12.5 32.5s26 19.5 78 25.5s118.5 9 199.5 9s138.833 -3.16699 173.5 -9.5s52 -16.166 52 -29.499c0 -16.667 -73.333 -27 -220 -31c-9.33301 -0.666992 -16.333 -1 -21 -1z" />
    <glyph glyph-name="grave" unicode="`" 
d="M-121 792c0 14 5.33301 26.333 16 37c18 19.333 35 20.666 51 3.99902l101 -106c10 -10 16.333 -20.333 19 -31s1.33398 -19.167 -3.99902 -25.5s-10.333 -10.166 -15 -11.499s-10.334 -0.333008 -17.001 3c-10.667 6.66699 -20 13 -28 19l-110 81
c-8.66699 6 -13 16 -13 30z" />
    <glyph glyph-name="a" unicode="a" horiz-adv-x="518" 
d="M479 380c0 -20 -8.00098 -43.334 -24.001 -70.001c7.33301 -10 11 -19.167 11 -27.5s-4.66699 -28.833 -14 -61.5s-15.666 -58 -18.999 -76s-5.5 -33.667 -6.5 -47s-2 -24.333 -3 -33s-2.16699 -17 -3.5 -25c-2.66699 -16 -9.66699 -24 -21 -24
c-24 0 -37.667 38.667 -41 116c-28 -34 -58.833 -61.833 -92.5 -83.5s-65.167 -32.5 -94.5 -32.5s-57.333 12.833 -84 38.5s-40 52.834 -40 81.501c0 40.667 15.333 90.334 46 149.001s70.167 110.667 118.5 156s93.5 68 135.5 68c32 0 62 -13.833 90 -41.5
s42 -56.834 42 -87.501zM408.999 338.999c0 27.333 -4.66699 49.499 -14 66.499s-22.333 25.5 -39 25.5c-28 0 -60.667 -18.667 -98 -56s-69 -79.5 -95 -126.5s-39 -84.833 -39 -113.5c0 -12.667 4 -22.667 12 -30s18.333 -11.333 31 -12
c36.667 -1.33301 78 18.834 124 60.501s79.667 95.167 101 160.5c3.33301 10 9 16.333 17 19v6z" />
    <glyph glyph-name="b" unicode="b" horiz-adv-x="519" 
d="M413 512c31.333 0 57.665 -15.1631 78.998 -45.4961s32 -66.333 32 -108s-12.167 -89.667 -36.5 -144s-57.166 -101.333 -98.499 -141s-84.833 -59.5 -130.5 -59.5s-90.5 24 -134.5 72c-13.333 -46.667 -24.166 -70 -32.499 -70s-18.333 6.5 -30 19.5
s-17.5 25.667 -17.5 38s10.5 55.166 31.5 128.499s42 162.166 63 266.499s31.5 201.166 31.5 290.499c0 11.333 1.33301 19.166 4 23.499s8.66699 6.5 18 6.5s21 -9.16699 35 -27.5s21 -36.833 21 -55.5c0 -90 -18 -209.667 -54 -359c80 110 153 165 219 165z
M251.999 87.0039c44 0 87.165 29.667 129.498 89s63.5 122.333 63.5 189c0 44 -13 66 -39 66c-39.333 0 -83.166 -27.5 -131.499 -82.5s-89.5 -120.167 -123.5 -195.5c30.667 -44 64.334 -66 101.001 -66z" />
    <glyph glyph-name="c" unicode="c" horiz-adv-x="455" 
d="M328 509c28 0 51.9971 -11.8311 71.9971 -35.498s30 -43.167 30 -58.5s-5.33301 -23 -16 -23c-7.33301 0 -19.166 6.33301 -35.499 19s-31.166 19 -44.499 19c-36.667 0 -79.334 -32.333 -128.001 -97s-73 -121 -73 -169c0 -21.333 6.83301 -38.5 20.5 -51.5
s33 -19.5 58 -19.5s48.167 2.16699 69.5 6.5s37.333 9.16602 48 14.499c26.667 14.667 45.834 22 57.501 22s17.5 -6 17.5 -18c0 -18 -23.167 -39.5 -69.5 -64.5s-88.666 -37.5 -126.999 -37.5s-74.166 14.667 -107.499 44s-50 65.166 -50 107.499s13.833 90.5 41.5 144.5
s63.667 100.333 108 139s87.166 58 128.499 58z" />
    <glyph glyph-name="d" unicode="d" horiz-adv-x="508" 
d="M470.5 782c3 4.66699 9.16797 7.00195 18.501 7.00195s21 -9.33301 35 -28s21 -36.667 21 -54s-8.16699 -66.5 -24.5 -147.5s-35.833 -167.167 -58.5 -258.5c-47.333 -190 -78 -285 -92 -285c-9.33301 0 -19 5.33301 -29 16s-15 21.667 -15 33s3 29.666 9 54.999
c-66 -69.333 -124.667 -104 -176 -104c-30 0 -56.5 13 -79.5 39s-34.5 53 -34.5 81c0 41.333 11.333 90.666 34 147.999s55.167 109.166 97.5 155.499s87.166 69.5 134.499 69.5s80.333 -29.333 99 -88c33.333 142 52 254.667 56 338c0 10.667 1.5 18.334 4.5 23.001z
M378.001 298.002c0 37.333 -6.00098 68.833 -18.001 94.5s-27.333 38.5 -46 38.5c-28.667 0 -58.5 -17.5 -89.5 -52.5s-55.833 -75.833 -74.5 -122.5s-28 -87.667 -28 -123c0 -12.667 4.83301 -23 14.5 -31s20.834 -12 33.501 -12c26 0 61.667 19.167 107 57.5
s78 82.833 98 133.5l3 12v5z" />
    <glyph glyph-name="e" unicode="e" horiz-adv-x="454" 
d="M384 259c-38 -22 -80.3311 -33.0029 -126.998 -33.0029s-92 5.66699 -136 17c-9.33301 -29.333 -14 -56.166 -14 -80.499s7.66699 -43.166 23 -56.499s39.166 -20 71.499 -20s65.833 6 100.5 18s54 18 58 18c16.667 0 25 -6.33301 25 -19
c0 -17.333 -20.167 -36.166 -60.5 -56.499s-79.5 -30.5 -117.5 -30.5c-50.667 0 -92.334 15.333 -125.001 46s-49 69.5 -49 116.5s12.5 96.333 37.5 148s57.5 95 97.5 130s79.5 52.5 118.5 52.5s74.5 -18.5 106.5 -55.5s48 -73.167 48 -108.5s-19 -64 -57 -86z
M292.002 434.997c-26 0 -52.665 -13.334 -79.998 -40.001s-50.333 -59.667 -69 -99c29.333 -6 61.666 -9 96.999 -9s65.333 5.5 90 16.5s37 25.833 37 44.5s-8.33301 37.834 -25 57.501s-33.334 29.5 -50.001 29.5z" />
    <glyph glyph-name="f" unicode="f" horiz-adv-x="374" 
d="M139 43.5c-9.33301 -20.333 -17.832 -30.5 -25.499 -30.5s-16.5 6.33301 -26.5 19s-14 24.667 -12 36c50 190 76.667 292 80 306c-32.667 -6 -53.334 -9 -62.001 -9s-18 4.33301 -28 13s-15 18.5 -15 29.5s13.833 20 41.5 27s54.834 13.167 81.501 18.5l8.5 44
c3.66699 19.333 6.5 33.333 8.5 42c16.667 88 37.667 150.667 63 188s60.666 56 105.999 56c33.333 0 60.333 -13 81 -39s31 -55.833 31 -89.5s-8.33301 -50.5 -25 -50.5c-16 0 -28.333 17.667 -37 53c-3.33301 13.333 -9.16602 25.5 -17.499 36.5s-18.333 16.5 -30 16.5
s-21.834 -4.16699 -30.501 -12.5s-17 -22.833 -25 -43.5c-12.667 -34.667 -22.334 -65.667 -29.001 -93l-23 -96c25.333 3.33301 49.333 5 72 5c44 0 66 -9 66 -27c0 -11.333 -10 -20 -30 -26c-34 -10 -76 -18.667 -126 -26c-30.667 -123.333 -52.167 -207 -64.5 -251
s-23.166 -76.167 -32.499 -96.5z" />
    <glyph glyph-name="g" unicode="g" horiz-adv-x="471" 
d="M150 -245c-47.333 0 -87.168 12.5059 -119.501 37.5059s-48.5 50.167 -48.5 75.5c0 9.33301 3 19.166 9 29.499s12.333 15.5 19 15.5s14.334 -5 23.001 -15s16.834 -20.833 24.501 -32.5s19.5 -22.5 35.5 -32.5s31.5 -15 46.5 -15s26.333 2.16699 34 6.5
s14.834 11.5 21.501 21.5s12.5 20.167 17.5 30.5s10.167 24.166 15.5 41.499l14 46.5c4 13.667 9 32 15 55l15 56.5c-53.333 -40 -96.5 -60 -129.5 -60s-61.5 12.667 -85.5 38s-36 52.666 -36 81.999c0 41.333 13.5 91.166 40.5 149.499s62.667 110.166 107 155.499
s87.5 68 129.5 68c41.333 0 70.666 -18.667 87.999 -56c14 -30 22.333 -65.667 25 -107c0.666992 -8 0.333984 -17.333 -0.999023 -28c9.33301 -12.667 13 -27 11 -43c-4.66699 -22.667 -15 -47.334 -31 -74.001c-17.333 -38.667 -34.833 -88.667 -52.5 -150l-42.5 -149.5
c-10.667 -38.333 -28.334 -72.333 -53.001 -102s-55.334 -44.5 -92.001 -44.5zM301.998 431.006c-26.667 0 -56.501 -18.666 -89.501 -55.999s-60.5 -79.5 -82.5 -126.5s-33 -84.833 -33 -113.5c0 -12.667 4.33301 -22.667 13 -30c30.667 -27.333 79.667 -11 147 49
c47.333 41.333 81 88.333 101 141c-3.33301 8 -6 21.167 -8 39.5s-4.16699 33.666 -6.5 45.999s-7.16602 23.833 -14.499 34.5s-16.333 16 -27 16z" />
    <glyph glyph-name="h" unicode="h" horiz-adv-x="537" 
d="M168 789c11.333 0 23.668 -9.50098 37.001 -28.501s20 -37.5 20 -55.5c0 -45.333 -10.5 -120.833 -31.5 -226.5s-49.167 -211.167 -84.5 -316.5c69.333 124.667 126.166 213.667 170.499 267s82.5 80 114.5 80c17.333 0 37.166 -14.5 59.499 -43.5s33.5 -56.5 33.5 -82.5
c0 -38 -8.33301 -86.333 -25 -145c-42 -148 -80.333 -222 -115 -222c-14 0 -21 7.66699 -21 23s2.83301 32.833 8.5 52.5s13.834 45.167 24.501 76.5c31.333 93.333 47 157 47 191c0 12.667 -3.16699 23.334 -9.5 32.001s-14 13 -23 13s-19.5 -4.33301 -31.5 -13
s-27 -25 -45 -49c-24.667 -32 -47.834 -64.5 -69.501 -97.5l-34.5 -52.5c-4.66699 -8 -9.5 -15.833 -14.5 -23.5l-26 -41.5l-28.5 -45.5l-22 -33.5c-14.667 -21.333 -26.167 -32 -34.5 -32s-18.666 7.33301 -30.999 22s-17.833 27.667 -16.5 39c42 172 67 277.667 75 317
c32.667 159.333 49 278.333 49 357c0 25.333 8 38 24 38z" />
    <glyph glyph-name="i" unicode="i" horiz-adv-x="260" 
d="M276 602c0 -6 -2.83398 -11.501 -8.50098 -16.501s-11.5 -7.5 -17.5 -7.5c-15.333 0 -32.5 9.33301 -51.5 28s-28.5 34.5 -28.5 47.5s5 25.167 15 36.5s20.333 17 31 17s23.334 -13.167 38.001 -39.5s22 -48.166 22 -65.499zM162.999 508.999
c11.333 0 22.165 -6.83301 32.498 -20.5s15.5 -27.167 15.5 -40.5c0 -40 -34 -167 -102 -381c-11.333 -34 -26 -51 -44 -51c-8.66699 0 -16.167 4.83301 -22.5 14.5s-8.5 20.5 -6.5 32.5c4.66699 20.667 13.334 54.667 26.001 102s28 109 46 185s28.667 118.667 32 128
c6.66699 20.667 14.334 31 23.001 31z" />
    <glyph glyph-name="j" unicode="j" horiz-adv-x="246" 
d="M200.5 490c11 -13.333 16.502 -25.1699 16.502 -35.5029s-1.33301 -22.666 -4 -36.999s-8 -37.666 -16 -69.999l-25 -98l-38.5 -149.5l-48.5 -190c-26.667 -102.667 -76.667 -154 -150 -154c-32.667 0 -64.667 14 -96 42s-47 51.667 -47 71c0 8.66699 3 18.334 9 29.001
s12 16 18 16c8 0 21.667 -12.333 41 -37c29.333 -37.333 55.666 -56 78.999 -56c21.333 0 40.333 20.667 57 62c16.667 42.667 31.167 91.5 43.5 146.5l31.5 140.5c24 106 47.667 203.667 71 293c9.33301 30.667 18.666 46.167 27.999 46.5s19.5 -6.16699 30.5 -19.5z
M266.502 667.496c14.333 -26.333 21.5 -45.335 21.5 -57.002s-2.66699 -20 -8 -25s-11 -7.5 -17 -7.5c-15.333 0 -32.5 9.33301 -51.5 28s-28.5 34.334 -28.5 47.001s4.83301 24.834 14.5 36.501s20 17.5 31 17.5s23.667 -13.167 38 -39.5z" />
    <glyph glyph-name="k" unicode="k" horiz-adv-x="495" 
d="M328 408c56 67.333 90.5029 101 103.503 101s25 -6.33301 36 -19s15.167 -24.334 12.5 -35.001c-9.33301 -11.333 -32.833 -37.166 -70.5 -77.499s-64.5 -73.166 -80.5 -98.499s-24 -49.833 -24 -73.5s7.16699 -45.667 21.5 -66s30.166 -35.666 47.499 -45.999
s33.166 -20.333 47.499 -30s21.5 -17.834 21.5 -24.501c0 -15.333 -11.667 -23 -35 -23c-32.667 0 -68.5 17.167 -107.5 51.5s-60.5 71.166 -64.5 110.499c-46.667 -62.667 -80 -105.334 -100 -128.001s-34.833 -34 -44.5 -34s-20 7.66699 -31 23s-15.833 29 -14.5 41
c86 327.333 129 554.333 129 681c0 10.667 1.5 18 4.5 22s9.16699 6 18.5 6s20.666 -9.16699 33.999 -27.5s20 -36.833 20 -55.5c0 -62 -12 -146.667 -36 -254s-53 -210.666 -87 -309.999c76.667 110 143 198.667 199 266z" />
    <glyph glyph-name="l" unicode="l" horiz-adv-x="234" 
d="M75 16c-9.33301 0 -19.8311 6.99805 -31.498 20.998s-16.834 26.667 -15.501 38l61 270.5c13.333 61.667 25.833 131.834 37.5 210.501s17.5 145.667 17.5 201c0 12 1.16699 20.333 3.5 25s7.66602 7 15.999 7s20.333 -9 36 -27s23.5 -35.333 23.5 -52
c0 -123.333 -27.667 -292.666 -83 -507.999c-29.333 -109.333 -49 -170 -59 -182c-2 -2.66699 -4 -4 -6 -4z" />
    <glyph glyph-name="m" unicode="m" horiz-adv-x="830" 
d="M675 509c20 0 37.834 -13.333 53.501 -40s23.5 -58.334 23.5 -95.001c0 -58.667 -14.333 -133 -43 -223s-57 -135 -85 -135c-14 0 -21 8.5 -21 25.5s6 42.5 18 76.5c36 102 54 181.667 54 239c0 40 -7 60 -21 60c-20 0 -49 -28 -87 -84l-100 -160
c-4.66699 -7.33301 -14.667 -26.333 -30 -57s-28.666 -55 -39.999 -73s-20.833 -27 -28.5 -27s-16.167 5 -25.5 15s-14 19.5 -14 28.5s6.33301 28.5 19 58.5c36.667 91.333 55 174 55 248c0 14 -3.33301 26 -10 36s-13.167 15 -19.5 15s-12.5 -1.5 -18.5 -4.5
s-12.333 -8.33301 -19 -16s-13.167 -15.667 -19.5 -24s-14.5 -20 -24.5 -35l-28 -43.5c-16.667 -28 -34.834 -57 -54.501 -87l-47.5 -73.5l-29 -45.5l-24 -36c-17.333 -24 -30 -36 -38 -36s-18.167 7.16699 -30.5 21.5s-17.833 26.5 -16.5 36.5c5.33301 26 17 70.667 35 134
s29 119.5 33 168.5s6.66699 83.833 8 104.5s7 31 17 31c14 0 27.667 -7.16699 41 -21.5s20 -29.166 20 -44.499c0 -58.667 -22 -155.334 -66 -290.001c72.667 132.667 127.667 224.667 165 276s73.333 77 108 77c16 0 35 -13.667 57 -41s33 -57.166 33 -89.499
s-5.66699 -67.833 -17 -106.5c81.333 158 153.666 237 216.999 237z" />
    <glyph glyph-name="n" unicode="n" horiz-adv-x="529" 
d="M388 509c22 0 44.1689 -13.501 66.502 -40.501s33.5 -55.5 33.5 -85.5c0 -47.333 -11 -105 -33 -173c-41.333 -129.333 -77 -194 -107 -194c-14 0 -21 9 -21 27c0 14.667 7.66699 43.667 23 87c40 115.333 60 193.666 60 234.999c0 14.667 -3.16699 27.167 -9.5 37.5
s-12.833 15.5 -19.5 15.5s-13.5 -2 -20.5 -6s-14.667 -10.5 -23 -19.5s-16.333 -18.167 -24 -27.5s-17 -22.333 -28 -39l-28.5 -44l-100.5 -156.5l-46.5 -73.5c-17.333 -24 -30.333 -36 -39 -36s-19.167 7.16699 -31.5 21.5s-17.333 27.333 -15 39s9 34.834 20 69.501
s19.167 62.334 24.5 83.001c17.333 64.667 27.333 136.667 30 216c1.33301 24 3.16602 41.167 5.49902 51.5s7.16602 15.5 14.499 15.5c13.333 0 26.833 -7.33301 40.5 -22s20.5 -31.667 20.5 -51s-5.33301 -55 -16 -107s-24.667 -103 -42 -153c65.333 112 119 195 161 249
s77 81 105 81z" />
    <glyph glyph-name="o" unicode="o" horiz-adv-x="452" 
d="M169 345c-33.333 -58.667 -50 -114.502 -50 -167.502s13 -85.5 39 -97.5c50 8.66699 92.333 41.334 127 98.001s52 111 52 163c0 23.333 -4 45.333 -12 66s-19.333 35.334 -34 44.001c-48 -12 -88.667 -47.333 -122 -106zM416 341.998
c0 -80.667 -26.1699 -155.168 -78.5029 -223.501s-113.166 -102.5 -182.499 -102.5c-34 0 -62 15.333 -84 46s-33 70.167 -33 118.5s11.333 98.333 34 150s52.834 94.334 90.501 128.001s76.334 50.5 116.001 50.5s72.5 -16.833 98.5 -50.5s39 -72.5 39 -116.5z" />
    <glyph glyph-name="p" unicode="p" horiz-adv-x="508" 
d="M49.5 -231.5c-3.66699 -6.33301 -8.5 -9.5 -14.5 -9.5s-13.833 6.66699 -23.5 20s-14.5 26.166 -14.5 38.499s9.66699 56.5 29 132.5c60 238 93.333 416.333 100 535c1.33301 14 3.83301 22.5 7.5 25.5s9.66699 4.5 18 4.5s20.333 -8 36 -24s23.834 -35 24.501 -57
c0 -10 -2.33301 -25.667 -7 -47c61.333 83.333 123.333 125 186 125c28.667 0 53.167 -17.833 73.5 -53.5s30.5 -76.167 30.5 -121.5s-18.667 -93.5 -56 -144.5s-82.5 -93 -135.5 -126s-101.5 -49.5 -145.5 -49.5c-16 0 -29.667 2 -41 6v-1
c-2 -8 -5.16699 -21.833 -9.5 -41.5l-11 -49.5l-11.5 -49c-4.66699 -19.333 -8.83398 -35.333 -12.501 -48s-7.5 -25.167 -11.5 -37.5s-7.83301 -21.666 -11.5 -27.999zM148 91c56 0 114.166 26.832 174.499 80.499s90.5 110.334 90.5 170.001s-13.333 89.5 -40 89.5
s-62.5 -23 -107.5 -69s-80.833 -104.333 -107.5 -175l-1 1l-23 -96c2.66699 -0.666992 7.33398 -1 14.001 -1z" />
    <glyph glyph-name="q" unicode="q" horiz-adv-x="489" 
d="M431 -83c6.66699 0 12.335 -2.1709 17.002 -6.50391s7.5 -9.5 8.5 -15.5s-2 -12.5 -9 -19.5s-20 -16 -39 -27s-40 -24.5 -63 -40.5l-55 -37.5c-13.667 -9 -24.167 -13.5 -31.5 -13.5s-15.166 6.66699 -23.499 20s-12.5 23.833 -12.5 31.5s0.5 14 1.5 19
s2.83301 11.833 5.5 20.5s5.66699 17.5 9 26.5l13.5 37.5l17 46.5l22.5 61l27 72.5c-23.333 -23.333 -48.833 -41.833 -76.5 -55.5s-53.334 -20.5 -77.001 -20.5s-48.334 13.667 -74.001 41s-38.5 55.333 -38.5 84s9.16699 64.334 27.5 107.001s41.333 83.334 69 122.001
s59.667 71.5 96 98.5s69.333 40.5 99 40.5s56.667 -12 81 -36s36.5 -44 36.5 -60s-5.33301 -24 -16 -24c-8 0 -20.833 7.33301 -38.5 22s-33.167 22 -46.5 22c-29.333 0 -62.833 -18.833 -100.5 -56.5s-69.334 -80.167 -95.001 -127.5s-38.5 -85.333 -38.5 -114
c0 -11.333 3.83301 -21 11.5 -29s16.5 -12.333 26.5 -13c37.333 -1.33301 80 19.334 128 62.001s80.333 96.667 97 162c2.66699 9.33301 9.16699 14 19.5 14s22 -4.5 35 -13.5s19.5 -18.333 19.5 -28s-5.66699 -30.667 -17 -63s-30.833 -85.166 -58.5 -158.499l-74.5 -203
c51.333 34.667 90.333 52 117 52z" />
    <glyph glyph-name="r" unicode="r" horiz-adv-x="326" 
d="M120 509c12.667 0 24.334 -7.66602 35.001 -22.999c16 -23.333 20.667 -63.666 14 -120.999c28 44.667 53.5 77.167 76.5 97.5s49 33.666 78 39.999s47.5 2.5 55.5 -11.5s-2.33301 -28 -31 -42c-37.333 -16 -69 -39.667 -95 -71
c-36.667 -45.333 -77.667 -139.333 -123 -282c-13.333 -40 -23.333 -63.833 -30 -71.5s-13.334 -11.5 -20.001 -11.5c-12.667 -0.666992 -23 8.16602 -31 26.499s-8.33301 37.833 -1 58.5c39.333 116 57.333 214.333 54 295c0 11.333 -0.5 27.5 -1.5 48.5
s-1.16699 35.833 -0.5 44.5c2 15.333 8.66699 23 20 23z" />
    <glyph glyph-name="s" unicode="s" horiz-adv-x="421" 
d="M377 472c19.333 -24.667 28.9961 -44.168 28.9961 -58.501s-5 -21.5 -15 -21.5c-7.33301 0 -18.666 6.16699 -33.999 18.5s-31.166 18.5 -47.499 18.5s-41.833 -9.66699 -76.5 -29s-52 -39.666 -52 -60.999c0 -10 9.66699 -22.333 29 -37s40.5 -29.167 63.5 -43.5
s44.167 -32.833 63.5 -55.5s29 -47.334 29 -74.001s-17.833 -52.167 -53.5 -76.5s-77.5 -36.5 -125.5 -36.5s-90.167 11.5 -126.5 34.5s-54.5 43.833 -54.5 62.5s7 28 21 28c7.33301 0 19.666 -6 36.999 -18c34.667 -23.333 70.667 -35 108 -35s64.833 4.83301 82.5 14.5
s26.5 22.334 26.5 38.001s-9.66699 32.167 -29 49.5s-40.666 32.5 -63.999 45.5s-44.666 29.167 -63.999 48.5s-29 39 -29 59c0 35.333 27.333 71.833 82 109.5s100.334 56.5 137.001 56.5c22.667 0 43.667 -12.333 63 -37z" />
    <glyph glyph-name="t" unicode="t" horiz-adv-x="364" 
d="M136 112c0 -13.333 7.66504 -20.001 22.998 -20.001c26.667 0 57.834 7 93.501 21s55.5 21 59.5 21c11.333 0 17 -5.66699 17 -17c0 -18 -19.667 -39.333 -59 -64s-74.833 -37 -106.5 -37s-57.667 8.5 -78 25.5s-30.5 34.833 -30.5 53.5s3.83301 42.5 11.5 71.5
s18.834 67.167 33.501 114.5s26.334 88 35.001 122c-32 -6.66699 -52.833 -10 -62.5 -10s-19.334 5 -29.001 15s-14.5 19.667 -14.5 29c0 14.667 41.667 29.334 125 44.001c10.667 58.667 16.834 100.667 18.501 126s3.66699 40.166 6 44.499s8 6.5 17 6.5
s21.333 -6.83301 37 -20.5s23.5 -28.167 23.5 -43.5s-5.66699 -49 -17 -101c34.667 4 65 6 91 6c39.333 0 59 -8 59 -24c0 -10 -10.333 -18 -31 -24s-66.334 -16 -137.001 -30c-15.333 -55.333 -33.333 -116.666 -54 -183.999s-31 -109 -31 -125z" />
    <glyph glyph-name="u" unicode="u" horiz-adv-x="479" 
d="M314 16c-8.66699 0 -15.833 4 -21.5 12s-8.16699 19.333 -7.5 34c2.66699 27.333 11 64 25 110c-28 -46 -58.5 -83.5 -91.5 -112.5s-63.333 -43.5 -91 -43.5s-53.167 12.333 -76.5 37s-35 50.667 -35 78c0 40.667 8.83301 91.5 26.5 152.5s38.334 113.833 62.001 158.5
s43.167 67 58.5 67c10.667 0 20.167 -5.16699 28.5 -15.5s12.5 -20.333 12.5 -30s-9 -32.5 -27 -68.5s-35.833 -79.167 -53.5 -129.5s-26.5 -95.5 -26.5 -135.5c0 -11.333 3.5 -20.833 10.5 -28.5s15.5 -11.5 25.5 -11.5c26.667 0 58.167 23 94.5 69
s68.666 98.833 96.999 158.5s46.166 104.667 53.499 135s12.333 47.333 15 51s7.33398 5.5 14.001 5.5c12 0 24.5 -10 37.5 -30s17.167 -38 12.5 -54l-110 -367c-8 -28 -19 -42 -33 -42z" />
    <glyph glyph-name="v" unicode="v" horiz-adv-x="422" 
d="M376 509c10 0 20.3301 -4 30.9971 -12s16 -18.5 16 -31.5s-25.167 -74.667 -75.5 -185s-84.666 -182.5 -102.999 -216.5s-35.166 -51 -50.499 -51c-8.66699 0 -18.834 6.16699 -30.501 18.5s-20.5 26.166 -26.5 41.499c-18 42.667 -37.167 110 -57.5 202
s-30.5 160.333 -30.5 205c0 19.333 5.66699 29 17 29c13.333 0 27.333 -5.83301 42 -17.5s23.5 -23.667 26.5 -36s6.83301 -42.166 11.5 -89.499c9.33301 -108.667 26.333 -192.667 51 -252c18 39.333 41.333 95.333 70 168s51.834 128.667 69.501 168s30.834 59 39.501 59z
" />
    <glyph glyph-name="w" unicode="w" horiz-adv-x="678" 
d="M442 509c64.667 0 115.17 -23.667 151.503 -71s54.5 -104 54.5 -170c0 -56.667 -16 -111.334 -48 -164.001c-16 -26 -36.833 -47.167 -62.5 -63.5s-53.834 -24.5 -84.501 -24.5c-40 0 -73.333 22 -100 66s-44 97 -52 159l-85 -110l-52 -68
c-24.667 -31.333 -46.334 -47 -65.001 -47c-9.33301 0 -19.333 8.66699 -30 26s-16 35.333 -16 54c0 46.667 7.83301 111.334 23.5 194.001s23.5 143.667 23.5 183c0 24.667 6 37 18 37c14 0 29.5 -7.66699 46.5 -23s25.5 -29 25.5 -41s-9.83301 -56.5 -29.5 -133.5
s-29.834 -137.167 -30.501 -180.5c39.333 58.667 77 107 113 145s64.667 57 86 57c20 0 35.667 -39.333 47 -118c4.66699 -30 14 -57.333 28 -82s32.333 -37 55 -37c30.667 0 57.167 16 79.5 48s33.5 74.333 33.5 127s-11.167 92.5 -33.5 119.5s-49.5 40.5 -81.5 40.5
c-14.667 0 -28.5 6.5 -41.5 19.5s-19.5 24.833 -19.5 35.5c0 14.667 15.333 22 46 22z" />
    <glyph glyph-name="x" unicode="x" horiz-adv-x="422" 
d="M413 509c9.33301 0 19.6641 -4.99902 30.9971 -14.999s17 -18.5 17 -25.5s-2.16699 -13 -6.5 -18s-11.5 -11.833 -21.5 -20.5s-19.667 -17.834 -29 -27.501s-21 -23.334 -35 -41.001l-50.5 -64l-49.5 -61.5c14.667 -26.667 35 -59.667 61 -99
s42.167 -64.666 48.5 -75.999s9.5 -19.666 9.5 -24.999c0 -13.333 -7.66699 -20 -23 -20c-28.667 0 -76.667 54.333 -144 163c-69.333 -84 -111.666 -132.167 -126.999 -144.5s-27.166 -18.5 -35.499 -18.5s-17.666 5 -27.999 15s-15.5 19.333 -15.5 28
c0 3.33301 7.16699 12.333 21.5 27l65 67c29 30 55.833 60.667 80.5 92c-30.667 54 -57 104.667 -79 152s-33 77.833 -33 91.5s5.66699 20.5 17 20.5c16.667 0 34 -3.83301 52 -11.5s27 -17.167 27 -28.5c0 -30 21 -83.667 63 -161c55.333 75.333 96 127.666 122 156.999
s46.667 44 62 44z" />
    <glyph glyph-name="y" unicode="y" horiz-adv-x="520" 
d="M168 16c-28.667 0 -54.502 12.6631 -77.502 37.9961s-34.5 53 -34.5 83c0 62.667 18.167 140.334 54.5 233.001s65.833 139 88.5 139c10.667 0 20.834 -5.16699 30.501 -15.5s14.5 -20.666 14.5 -30.999s-9 -33.833 -27 -70.5c-54 -110 -81 -197.333 -81 -262
c0 -11.333 3.5 -20.833 10.5 -28.5s15.833 -11.5 26.5 -11.5c38.667 -0.666992 82.667 41.333 132 126s88.333 173 117 265c2.66699 11.333 5.16699 18.833 7.5 22.5s6.83301 5.5 13.5 5.5c14.667 0 28.334 -10.5 41.001 -31.5s15 -43.167 7 -66.5l-181 -514
c-33.333 -94 -82 -141 -146 -141c-36.667 0 -72.167 11.333 -106.5 34s-51.5 46.334 -51.5 71.001c0 8.66699 3.83301 18.334 11.5 29.001s14 16 19 16s12 -4.66699 21 -14l28.5 -30c26 -29.333 52.333 -44 79 -44s49 25.667 67 77l77 219
c-46.667 -65.333 -93.667 -98 -141 -98z" />
    <glyph glyph-name="z" unicode="z" horiz-adv-x="459" 
d="M414 410c0 -24.667 -14.832 -53.501 -44.499 -86.501s-62.167 -62.167 -97.5 -87.5c-94.667 -69.333 -142 -110.666 -142 -123.999c0 -12 9.66699 -18 29 -18c29.333 0 73.333 5 132 15s95.334 15 110.001 15c24 0 36 -8.66699 36 -26
c0 -18.667 -34.833 -37.167 -104.5 -55.5s-131.834 -27.5 -186.501 -27.5c-28.667 0 -54.5 10.5 -77.5 31.5s-34.5 40.333 -34.5 58s16 42 48 73s67.333 60.5 106 88.5c102 74.667 153 122 153 142c0 8 -6.5 13.5 -19.5 16.5s-32.167 4.5 -57.5 4.5s-50.5 -2 -75.5 -6
s-42.833 -6 -53.5 -6s-21.834 6.5 -33.501 19.5s-17.5 24.833 -17.5 35.5s14.667 19.5 44 26.5s67.833 10.5 115.5 10.5s86.167 -7 115.5 -21c13.333 -6 25.833 -17.5 37.5 -34.5s17.5 -31.5 17.5 -43.5z" />
    <glyph glyph-name="braceleft" unicode="{" horiz-adv-x="416" 
d="M435 717c1.33301 43.333 -20.999 65.001 -66.999 65.001c-31.333 0 -58.166 -10.5 -80.499 -31.5s-33.833 -49 -34.5 -84s2.66602 -66.5 9.99902 -94.5s14.833 -53 22.5 -75s11.334 -43.5 11.001 -64.5s-10.833 -41.667 -31.5 -62s-48 -30.5 -82 -30.5h-8
c3.33301 -10 4.83301 -24.5 4.5 -43.5s-9.16602 -51 -26.499 -96s-26.333 -85.667 -27 -122s8.66602 -61.833 27.999 -76.5s49.333 -22 90 -22c20.667 0 35 -1.83301 43 -5.5s12 -11 12 -22s-9.16699 -21.333 -27.5 -31s-39.5 -14.5 -63.5 -14.5
c-46.667 0 -86.167 16.667 -118.5 50s-48 70.666 -47 111.999s12.333 87 34 137s32.834 92.333 33.501 127c0.666992 10 -4.66602 23 -15.999 39c-18 14.667 -27 30.334 -27 47.001c0 4.66699 1.16699 9.5 3.5 14.5s5.5 7.5 9.5 7.5s16.167 -5.83301 36.5 -17.5
s36.166 -17.5 47.499 -17.5c38.667 0 58.667 18.333 60 55c0 11.333 -8 41.666 -24 90.999c-38.667 118 -28 204.333 32 259c35.333 32.667 75.166 49 119.499 49s79.166 -12.333 104.499 -37s37.666 -54 36.999 -88c0 -16.667 -5 -33.167 -15 -49.5s-19 -24.5 -27 -24.5
s-12.667 3.66699 -14 11s-2 16 -2 26v19z" />
    <glyph glyph-name="bar" unicode="|" horiz-adv-x="357" 
d="M82.5 -111c-12.333 14 -18.501 27.3311 -18.501 39.998s29 150.334 87 413.001s87 413 87 451c0 10.667 1.5 18.334 4.5 23.001s9.16699 7 18.5 7s21.5 -9.33301 36.5 -28s22.5 -39 22.5 -61s-28 -150.333 -84 -385c-4 -16 -16.667 -71.667 -38 -167
c-46 -209.333 -73.667 -314 -83 -314s-20.166 7 -32.499 21z" />
    <glyph glyph-name="braceright" unicode="}" horiz-adv-x="528" 
d="M454 353c0 -19.333 -13.332 -32.999 -39.999 -40.999c-18 -10 -31 -31 -39 -63s-13.5 -66.5 -16.5 -103.5s-7.66699 -73.5 -14 -109.5s-19.833 -66 -40.5 -90s-49.167 -36 -85.5 -36s-68.833 9.5 -97.5 28.5s-43 37.667 -43 56s5.33301 27.5 16 27.5
c13.333 0 26.333 -8 39 -24c4.66699 -5.33301 13.5 -10.5 26.5 -15.5s30.333 -7.5 52 -7.5s38.167 13.667 49.5 41s17.666 58.666 18.999 93.999s5.83301 73.833 13.5 115.5s19.834 73.167 36.501 94.5c-21.333 10 -38.833 24.167 -52.5 42.5s-20.5 37.166 -20.5 56.499
s6 38.833 18 58.5s26.5 38.5 43.5 56.5l51.5 54c40.667 44.667 61 83.667 61 117c0 25.333 -8.83301 46 -26.5 62s-36.834 24 -57.501 24s-37.834 -4.33301 -51.501 -13s-24.167 -18 -31.5 -28c-21.333 -27.333 -35.666 -41 -42.999 -41s-16.333 5.83301 -27 17.5
s-16 21.167 -16 28.5c0 22.667 18.5 45.834 55.5 69.501s75.167 35.5 114.5 35.5s77 -15.667 113 -47s54 -63 54 -95s-9.5 -63.333 -28.5 -94s-39.833 -56.667 -62.5 -78c-60 -56.667 -90 -96.667 -90 -120c0 -17.333 6.66699 -31.333 20 -42
c16.667 -12 40.667 -18.667 72 -20c18.667 0 28 -3.66699 28 -11z" />
    <glyph glyph-name="asciitilde" unicode="~" horiz-adv-x="595" 
d="M240 429c18 0 34.499 -5.83301 49.499 -17.5s27.167 -24.5 36.5 -38.5c25.333 -38.667 50 -59 74 -61c14 1.33301 26.833 7.33301 38.5 18s20.834 22 27.501 34c16 31.333 31.833 47 47.5 47s23.5 -11.333 23.5 -34c-0.666992 -31.333 -14.834 -62.833 -42.501 -94.5
s-58.5 -47.5 -92.5 -47.5c-49.333 0 -101.333 42.667 -156 128c-18.667 -8 -35.5 -19.167 -50.5 -33.5s-26.167 -27.5 -33.5 -39.5c-17.333 -31.333 -33.666 -47 -48.999 -47c-10 0 -18 2.66699 -24 8s-8.66699 12.666 -8 21.999c0.666992 32.667 18.667 66.834 54 102.501
s70.333 53.5 105 53.5z" />
    <glyph glyph-name="uni00A0" unicode="&#xa0;" horiz-adv-x="300" 
 />
    <glyph glyph-name="exclamdown" unicode="&#xa1;" horiz-adv-x="346" 
d="M196 733c0 4 2.99902 8.66699 8.99902 14s12 8 18 8c16 0 34.167 -10 54.5 -30s30.5 -37 30.5 -51s-5.33301 -27.5 -16 -40.5s-21.667 -19.5 -33 -19.5s-24.666 15.833 -39.999 47.5s-23 55.5 -23 71.5zM81.999 0c0 58 14.332 158.666 42.999 301.999
s51.334 215 68.001 215c10 0 19.5 -5.5 28.5 -16.5s12.833 -22.833 11.5 -35.5c-38 -190 -57 -355.333 -57 -496c0 -16.667 -5 -25 -15 -25c-10.667 -0.666992 -26.5 6.33301 -47.5 21s-31.5 26.334 -31.5 35.001z" />
    <glyph glyph-name="cent" unicode="&#xa2;" horiz-adv-x="476" 
d="M434 465.5c13.333 -20.333 20 -37.501 20 -51.501s-5.33301 -21 -16 -21c-8 0 -20.167 7 -36.5 21s-29.166 22.333 -38.499 25l-47.5 -178l-41.5 -156c28.667 3.33301 55.667 10.333 81 21s41.666 16 48.999 16c12 0 18 -6.33301 18 -19c0 -15.333 -19 -33.833 -57 -55.5
s-76 -35.167 -114 -40.5c-19.333 -66 -33 -99 -41 -99c-5.33301 0 -11 3.5 -17 10.5s-9 13.667 -9 20s4.33301 29.5 13 69.5c-35.333 7.33301 -66.166 24.833 -92.499 52.5s-39.5 58.167 -39.5 91.5c0 66 27.833 137 83.5 213s114.167 119.667 175.5 131
c22 64 38.667 96 50 96c15.333 0 23.666 -12.333 24.999 -37c0 -2 -5 -23.667 -15 -65c20 -9.33301 36.667 -24.166 50 -44.499zM149 172.999c0 -19.333 5.66699 -35.334 17 -48.001s27 -20 47 -22c26.667 119.333 53.667 225 81 317
c-36 -24.667 -69.167 -62.667 -99.5 -114s-45.5 -95.666 -45.5 -132.999z" />
    <glyph glyph-name="sterling" unicode="&#xa3;" horiz-adv-x="648" 
d="M580 506l5.99609 37.999c0 30 -14 45 -42 45c-19.333 0 -38.166 -13.333 -56.499 -40s-40.833 -78.667 -67.5 -156h22c58 0 95 -1 111 -3s24.333 -7.66699 25 -17c0.666992 -23.333 -57 -39 -173 -47l-8 -1c-20 -65.333 -42.667 -126 -68 -182
c14 -13.333 25.667 -23.666 35 -30.999c23.333 -20.667 47.166 -31 71.499 -31s46.5 7.16699 66.5 21.5s36.833 28.5 50.5 42.5s25.834 21 36.501 21s19.334 -3.83301 26.001 -11.5s10 -17.5 10 -29.5c0 -21.333 -21 -45.833 -63 -73.5s-80.333 -41.5 -115 -41.5
c-50 0 -101 23.333 -153 70c-30 -43.333 -67.333 -65 -112 -65c-25.333 0 -53.666 15.167 -84.999 45.5s-47 59.666 -47 87.999s10.333 51.833 31 70.5s47.5 28 80.5 28s67.833 -14.667 104.5 -44c15.333 41.333 29 81.333 41 120c-71.333 1.33301 -107.666 9 -108.999 23
c-0.666992 10 3.33301 20.833 12 32.5s16.667 17.834 24 18.501c14.667 0.666992 46.334 0 95.001 -2c33.333 106 66.333 178.333 99 217s73 58 121 58c31.333 0 57.166 -11.5 77.499 -34.5s30.5 -49.833 30.5 -80.5c0 -14 -7.83301 -28.333 -23.5 -43s-28.5 -22 -38.5 -22
s-15 5.33301 -15 16zM185.996 80.999c14.667 0 31.667 18.332 51 54.999c-30.667 29.333 -54 44 -70 44c-26 0 -39 -12 -39 -36c0 -11.333 6.83301 -24.666 20.5 -39.999s26.167 -23 37.5 -23z" />
    <glyph glyph-name="currency" unicode="&#xa4;" horiz-adv-x="600" 
d="M91 111c0 4.66699 25.0029 32.002 75.0029 82.002c-19.333 32 -28 68.667 -26 110c4 41.333 20 79.333 48 114l-24 43c-20 34 -30 54 -30 60s1 10.5 3 13.5s8.66699 4.5 20 4.5s25.666 -3.16699 42.999 -9.5s27.666 -14.833 30.999 -25.5
c1.33301 -6.66699 6.33301 -19.667 15 -39c26.667 14 53.5 21 80.5 21s51.167 -5.66699 72.5 -17c39.333 46.667 68.333 70 87 70c9.33301 0 19.5 -4.83301 30.5 -14.5s16.5 -17.334 16.5 -23.001s-1.16699 -10.5 -3.5 -14.5s-6.5 -9 -12.5 -15l-15.5 -16
c-4.33301 -4.66699 -11.5 -11.667 -21.5 -21l-23 -22c18 -30 25.667 -63.667 23 -101c-5.33301 -52.667 -26 -97.334 -62 -134.001c32 -50 48 -79 48 -87c0 -13.333 -7.33301 -20 -22 -20c-19.333 0 -46.333 22.667 -81 68c-24.667 -10 -49.167 -15 -73.5 -15
s-47.5 6.33301 -69.5 19c-42.667 -48.667 -69.834 -73 -81.501 -73s-22.5 5 -32.5 15s-15 19 -15 27zM300.003 184.002c26.667 0 51.498 12.5 74.498 37.5s35.167 52.833 36.5 83.5c3.33301 32 -3.66699 60 -21 84s-39.5 36 -66.5 36s-51.833 -12.333 -74.5 -37
s-35 -54 -37 -88c-3.33301 -32 3.83398 -59.333 21.501 -82s39.834 -34 66.501 -34z" />
    <glyph glyph-name="yen" unicode="&#xa5;" horiz-adv-x="557" 
d="M342 368c94.667 2 141.999 -6.50391 141.999 -25.5039s-61 -33.833 -183 -44.5c-2.66699 -19.333 -6 -38 -10 -56c25.333 1.33301 43.666 2 54.999 2c86 1.33301 129 -5 129 -19c0 -21.333 -66.667 -39.666 -200 -54.999v-2c-4 -16.667 -8 -34.334 -12 -53.001l-9.5 -44
c-2.33301 -10.667 -4.83301 -21 -7.5 -31c-4.66699 -17.333 -9.66699 -26 -15 -26c-9.33301 0 -20.5 6 -33.5 18s-19.5 24.5 -19.5 37.5s5.66699 43.5 17 91.5c-52 -6 -95 -8.66699 -129 -8c-7.33301 0.666992 -14.5 6.83398 -21.5 18.501s-10.167 21.5 -9.5 29.5
c2 13.333 61 25 177 35c4 18 7 36.667 9 56c-69.333 -6.66699 -113.666 -9.66699 -132.999 -9c-7.33301 0.666992 -14.5 6.83398 -21.5 18.501s-9.83301 21.5 -8.5 29.5c0.666992 14 51 24.667 151 32c-24 42.667 -48.333 93.334 -73 152.001s-37 101 -37 127
c0 15.333 6 23 18 23c14 0 27.833 -5 41.5 -15s23.834 -23 30.501 -39l26 -78c17.333 -52 37 -97.333 59 -136c142.667 178.667 227.334 268 254.001 268c8.66699 0 17.667 -3.66699 27 -11s14 -13.833 14 -19.5s-4.83301 -15.167 -14.5 -28.5
s-23.834 -30.666 -42.501 -51.999l-53 -59l-62.5 -68z" />
    <glyph glyph-name="brokenbar" unicode="&#xa6;" horiz-adv-x="359" 
d="M240 793c0 11.333 1.33203 19.1689 3.99902 23.502s8.66699 6.5 18 6.5s21.5 -9.33301 36.5 -28s22.5 -38.834 22.5 -60.501s-11.167 -77.834 -33.5 -168.501s-39.166 -136 -50.499 -136c-8.66699 0 -19.167 7 -31.5 21s-18.5 27.333 -18.5 40s8.83301 56.667 26.5 132
s26.5 132 26.5 170zM117.999 231.003c0 11.333 1.33203 19.166 3.99902 23.499s8.66699 6.5 18 6.5s21.5 -9.33301 36.5 -28s22.5 -38.667 22.5 -60s-11.167 -77.5 -33.5 -168.5s-39.166 -136.5 -50.499 -136.5c-8.66699 0 -19.167 7 -31.5 21s-18.5 27.333 -18.5 40
s8.83301 56.834 26.5 132.501s26.5 132.167 26.5 169.5z" />
    <glyph glyph-name="section" unicode="&#xa7;" horiz-adv-x="457" 
d="M298 466c20 -16 39.834 -32.834 59.501 -50.501s36.5 -38 50.5 -61s21 -46.167 21 -69.5c0 -34.667 -14.833 -65.334 -44.5 -92.001s-67.167 -45 -112.5 -55c30.667 -34 46 -68.667 46 -104s-15 -67.166 -45 -95.499s-67.333 -42.5 -112 -42.5
s-81.834 11.667 -111.501 35s-44.5 48.333 -44.5 75c0 11.333 3.16699 22.666 9.5 33.999s12.333 17 18 17s10.334 -1.83301 14.001 -5.5s8.16699 -10.167 13.5 -19.5s9.33301 -15.666 12 -18.999c19.333 -29.333 45 -44 77 -44s54 6.66699 66 20s18 30.333 18 51
s-9.5 41.667 -28.5 63s-39.667 40.333 -62 57s-43 37.167 -62 61.5s-28.5 48.833 -28.5 73.5c0 35.333 14.167 68.5 42.5 99.5s60.833 55.167 97.5 72.5c-31.333 32.667 -47 63 -47 91c0 41.333 19.167 78 57.5 110s79.5 48 123.5 48c30 0 54.833 -12.167 74.5 -36.5
s29.5 -51.833 29.5 -82.5s-8.66699 -46 -26 -46c-16.667 0 -29.334 15 -38.001 45c-3.33301 10.667 -9 20.667 -17 30s-18.333 14 -31 14c-25.333 0 -47 -7.5 -65 -22.5s-27 -34.167 -27 -57.5s24 -54.666 72 -93.999zM345.001 294.999c0 13.333 -5.5 27.833 -16.5 43.5
s-21.5 28.167 -31.5 37.5s-26.333 23.333 -49 42c-75.333 -36.667 -113 -78.334 -113 -125.001c0 -16.667 7.5 -32.5 22.5 -47.5s25 -24.667 30 -29l33.5 -29.5c38 2.66699 68.167 14.334 90.5 35.001s33.5 45 33.5 73z" />
    <glyph glyph-name="dieresis" unicode="&#xa8;" 
d="M133 769.5c13.333 -25 20.002 -42.501 20.002 -52.501s-2.66699 -17.833 -8 -23.5s-10.666 -8.5 -15.999 -8.5c-14.667 0 -30.834 8.66699 -48.501 26s-26.5 32.333 -26.5 45s4.66699 24.334 14 35.001s19.166 16 29.499 16s22.166 -12.5 35.499 -37.5zM-14.498 769.499
c13.667 -25 20.5 -42.5 20.5 -52.5s-2.83301 -17.833 -8.5 -23.5s-11.167 -8.5 -16.5 -8.5c-14 0 -29.833 8.83301 -47.5 26.5s-26.5 32.667 -26.5 45s4.5 23.833 13.5 34.5s18.667 16 29 16s22.333 -12.5 36 -37.5z" />
    <glyph glyph-name="copyright" unicode="&#xa9;" horiz-adv-x="708" 
d="M329 60c-78.667 0 -139.669 23.3311 -183.002 69.998s-65 106.334 -65 179.001c0 90.667 36.833 171.834 110.5 243.501s155.834 107.5 246.501 107.5c78 0 140.333 -24.167 187 -72.5s70 -109.5 70 -183.5c0 -98.667 -35.167 -180.667 -105.5 -246
s-157.166 -98 -260.499 -98zM626.998 412.998c0 56.667 -15.8291 103.333 -47.4961 140s-71.167 55 -118.5 55c-35.333 0 -71.333 -7.16699 -108 -21.5s-70.334 -34.5 -101.001 -60.5s-55.834 -59.667 -75.501 -101s-29.5 -88.333 -29.5 -141s15.667 -94.667 47 -126
s72.666 -47 123.999 -47c95.333 0 170.666 26.333 225.999 79s83 127 83 223zM455.002 544.997c10.667 0 21.4971 -6.00293 32.4971 -18.0029s16.5 -22.833 16.5 -32.5s-4.33301 -14.5 -13 -14.5c-3.33301 0 -8.66602 1.33301 -15.999 4s-13.666 4 -18.999 4
c-27.333 0 -60.833 -23.167 -100.5 -69.5s-59.5 -91.166 -59.5 -134.499c0 -13.333 4.5 -24 13.5 -32s24 -12 45 -12s46.833 7 77.5 21s47.334 21 50.001 21c9.33301 0 14 -5.33301 14 -16c0 -14 -17.667 -31.5 -53 -52.5s-67 -31.5 -95 -31.5s-53.667 11 -77 33
s-35 47.333 -35 76s11 63.334 33 104.001s50.5 75.834 85.5 105.501s68.5 44.5 100.5 44.5z" />
    <glyph glyph-name="ordfeminine" unicode="&#xaa;" horiz-adv-x="466" 
d="M402 675c0 -9.33301 -2.00293 -19.001 -6.00293 -29.001c0.666992 -1.33301 1 -4.33301 1 -9s-3 -22.167 -9 -52.5s-9.5 -53.5 -10.5 -69.5s-1.5 -29.5 -1.5 -40.5s-0.166992 -19.167 -0.5 -24.5s-0.833008 -11 -1.5 -17c-2 -10.667 -6.66699 -16 -14 -16
c-9.33301 0 -18.166 7.66699 -26.499 23s-13.166 33.333 -14.499 54c-41.333 -51.333 -83.666 -77 -126.999 -77c-26 0 -49.5 10.833 -70.5 32.5s-31.5 43.834 -31.5 66.501s5 48.5 15 77.5s23.5 57.333 40.5 85s38.5 51.167 64.5 70.5s53.167 29 81.5 29
s53.833 -12.167 76.5 -36.5s34 -46.5 34 -66.5zM195.997 477.999c25.333 0 53 17.5 83 52.5s52.333 78.833 67 131.5c-2 12.667 -7.66699 24.5 -17 35.5s-21 16.5 -35 16.5c-32.667 0 -64 -23.333 -94 -70s-45 -88 -45 -124c0 -28 13.667 -42 41 -42z" />
    <glyph glyph-name="guillemotleft" unicode="&#xab;" horiz-adv-x="684" 
d="M675 474c12 0 23.166 -4.00195 33.499 -12.002s15.5 -15.667 15.5 -23c-0.666992 -10 -12.667 -18 -36 -24c-67.333 -14 -130.333 -30.833 -189 -50.5s-88 -36.5 -88 -50.5c0 -9.33301 21.5 -22.833 64.5 -40.5l128.5 -52.5c42.667 -17.333 64 -30.666 64 -39.999
c0 -12 -11 -18 -33 -18s-57.667 8.66699 -107 26s-95 38.333 -137 63s-63 45.334 -63 62.001c0 8 4.33301 18.167 13 30.5s17.334 21.833 26.001 28.5c27.333 20 78 41.833 152 65.5s126 35.5 156 35.5zM363.999 496.998c12 0 23.167 -3.49902 33.5 -10.499
s15.5 -13.833 15.5 -20.5c0 -10 -11.667 -18.667 -35 -26c-60.667 -19.333 -118.667 -41.333 -174 -66s-83 -44 -83 -58c0 -10.667 21.333 -26.167 64 -46.5l128 -60c42.667 -19.667 64 -33.5 64 -41.5c0 -12.667 -13.5 -19 -40.5 -19s-83.167 20.833 -168.5 62.5
s-128 74.167 -128 97.5c0 9.33301 4 20.666 12 33.999s15.667 23 23 29c28.667 22.667 77.5 49.167 146.5 79.5s116.5 45.5 142.5 45.5z" />
    <glyph glyph-name="logicalnot" unicode="&#xac;" horiz-adv-x="496" 
d="M396 401l-295.001 -2c-25.333 0 -48.166 7.16699 -68.499 21.5s-30.5 28 -30.5 41s5.66699 19.5 17 19.5c6 0 20.333 -0.333008 43 -1c52 -2.66699 131.5 -4 238.5 -4s170 -2.66699 189 -8s33.167 -17 42.5 -35s14 -39 14 -63s-11.167 -59.667 -33.5 -107
s-48.333 -89.5 -78 -126.5s-53.167 -55.5 -70.5 -55.5c-12 0 -18 5.66699 -18 17c0 5.33301 9.66699 24.333 29 57c58 98 87 172 87 222c0 16 -22 24 -66 24z" />
    <glyph glyph-name="uni00AD" unicode="&#xad;" horiz-adv-x="600" 
d="M125.5 247.5c-11.667 -2.33301 -21.667 -3.49902 -30 -3.49902s-17.333 5.16699 -27 15.5s-14.5 20.166 -14.5 29.499c0 14 37.333 27.833 112 41.5s134.667 20.5 180 20.5s68 -8 68 -24c0 -10.667 -10.667 -19 -32 -25s-54 -13.333 -98 -22s-78.5 -15.667 -103.5 -21z
" />
    <glyph glyph-name="registered" unicode="&#xae;" horiz-adv-x="767" 
d="M451 660c78 0 140.331 -24.1689 186.998 -72.502s70 -109.5 70 -183.5c0 -98.667 -35.167 -180.667 -105.5 -246s-157.166 -98 -260.499 -98c-78.667 0 -139.667 23.333 -183 70s-65 106.334 -65 179.001c0 90.667 36.833 171.834 110.5 243.501
s155.834 107.5 246.501 107.5zM330.998 110.998c95.333 0 170.669 26.333 226.002 79s83 127 83 223c0 56.667 -15.833 103.334 -47.5 140.001s-71.334 55 -119.001 55s-95 -12 -142 -36s-87.333 -60.833 -121 -110.5s-50.5 -104.834 -50.5 -165.501
s15.667 -106.667 47 -138s72.666 -47 123.999 -47zM314.001 204.498c-2.66699 -4.33301 -6 -6.50195 -10 -6.50195s-9.33301 3.83301 -16 11.5s-10 15.334 -10 23.001s8.66699 41.667 26 102s27.333 104.833 30 133.5c-10.667 8 -16 16.833 -16 26.5s11 18.5 33 26.5
s46.333 12 73 12s50.167 -6.33301 70.5 -19s30.5 -31 30.5 -55s-10.833 -45.5 -32.5 -64.5s-43.167 -33.167 -64.5 -42.5l-32 -13c0 -12 26 -38.667 78 -80c21.333 -17.333 33.833 -28.5 37.5 -33.5s5.5 -9.16699 5.5 -12.5s-2 -6.66602 -6 -9.99902s-9 -5 -15 -5
c-16 0 -40.333 13.833 -73 41.5s-56.667 53.834 -72 78.501l-10 -34l-10 -34c-2.66699 -8.66699 -5.5 -17.334 -8.5 -26.001s-5.83301 -15.167 -8.5 -19.5zM474.001 459.996c0 14.667 -15.332 22.002 -45.999 22.002c-14.667 0 -30.334 -3 -47.001 -9
c1.33301 -4 2 -10.667 2 -20s-5.66699 -37 -17 -83c5.33301 3.33301 16 9.16602 32 17.499s28.5 15.166 37.5 20.499s17.667 12.833 26 22.5s12.5 19.5 12.5 29.5z" />
    <glyph glyph-name="macron" unicode="&#xaf;" 
d="M160.5 611c-18.333 -4.66699 -48.6689 -10.3301 -91.002 -16.9971s-74.166 -11.834 -95.499 -15.501s-37.333 -6.5 -48 -8.5s-21 -3.16699 -31 -3.5s-21 4.66699 -33 15s-18.333 20.166 -19 29.499c0 12.667 24.167 21.667 72.5 27s118.166 9.66602 209.499 12.999
c23.333 0.666992 39.333 -0.5 48 -3.5s13.334 -8.16699 14.001 -15.5c0.666992 -9.33301 -8.16602 -16.333 -26.499 -21z" />
    <glyph glyph-name="degree" unicode="&#xb0;" horiz-adv-x="330" 
d="M237 657c-16.667 0 -32.8301 -8.66895 -48.4971 -26.002s-26.334 -37.666 -32.001 -60.999s-4.33398 -43.666 3.99902 -60.999s21 -26 38 -26s33.5 8.66699 49.5 26s26 37.333 30 60c6.66699 23.333 5.66699 43.833 -3 61.5s-21.334 26.5 -38.001 26.5zM149.004 679.998
c33.333 30 68.668 45 106.001 45s65.666 -15 84.999 -45s24.333 -66 15 -108c-10.667 -42 -32.667 -78 -66 -108s-68.833 -45 -106.5 -45s-66.167 15 -85.5 45s-24 66 -14 108c10.667 42 32.667 78 66 108z" />
    <glyph glyph-name="plusminus" unicode="&#xb1;" horiz-adv-x="600" 
d="M537 486c40.667 0 60.998 -8.00293 60.998 -24.0029c0 -25.333 -74.667 -46.333 -224 -63c-21.333 -109.333 -34.833 -170.166 -40.5 -182.499s-10.834 -18.833 -15.501 -19.5c-9.33301 0 -19 6 -29 18s-14.667 23.5 -14 34.5s2 23 4 36s4.83301 30 8.5 51
s6.83398 39.833 9.50098 56.5c-50 -4 -96.333 -6 -139 -6c-14 0 -27.333 6.83301 -40 20.5s-19 26.667 -19 39s8.33301 18.5 25 18.5c93.333 0 155 1 185 3c7.33301 60 12.333 112.667 15 158c0.666992 8.66699 2.83398 15.334 6.50098 20.001s7.83398 6.66699 12.501 6
c10.667 0 24.5 -8.16699 41.5 -24.5s25.5 -29.166 25.5 -38.499c-1.33301 -18 -8 -55.667 -20 -113c80 6.66699 129 10 147 10zM554.998 132.997c0 -23.333 -52.667 -41 -158 -53s-194 -18 -266 -18c-12.667 0 -24.5 6.33301 -35.5 19s-16.5 24 -16.5 34s6.33301 15 19 15
c72 0 133.833 2.16699 185.5 6.5l111.5 9.5c22.667 2 49 3.33301 79 4c54 2 81 -3.66699 81 -17z" />
    <glyph glyph-name="twosuperior" unicode="&#xb2;" horiz-adv-x="305" 
d="M172.5 645.5c-14.333 -13 -23.501 -19.498 -27.501 -19.498s-10.667 3 -20 9s-14 12 -14 18c0 14 10.833 28.833 32.5 44.5s45 23.5 70 23.5s45.667 -8.66699 62 -26s24.5 -39 24.5 -65c0 -72.667 -56.333 -145.334 -169 -218.001c88.667 12.667 134 19 136 19
c24 0 36 -6 36 -18s-25 -23.833 -75 -35.5s-88 -17.5 -114 -17.5c-11.333 0 -23.166 5 -35.499 15s-18.333 19.5 -18 28.5s10 21.667 29 38s40 33.166 63 50.499s44 38.5 63 63.5s28.5 49.5 28.5 73.5s-10.333 36 -31 36c-12.667 0 -26.167 -6.5 -40.5 -19.5z" />
    <glyph glyph-name="threesuperior" unicode="&#xb3;" horiz-adv-x="313" 
d="M309 479c0 -31.333 -21.6709 -58.498 -65.0039 -81.498s-85.5 -34.5 -126.5 -34.5s-61.5 7.33301 -61.5 22c0 6 15.833 12.333 47.5 19s63.334 16.167 95.001 28.5s47.5 28.166 47.5 47.499c0 9.33301 -10 16.333 -30 21s-40 9 -60 13s-30 10 -30 18
c0 6 2.33301 10.667 7 14c6 6.66699 20 16 42 28s41.5 24.5 58.5 37.5s25.5 26.833 25.5 41.5c0 11.333 -7 17 -21 17s-30.667 -5.5 -50 -16.5s-31.666 -16.5 -36.999 -16.5s-11.833 3.83301 -19.5 11.5s-11.5 14.5 -11.5 20.5c0 12 13.333 23.667 40 35
s51.334 17 74.001 17s41.5 -7.5 56.5 -22.5s22.5 -31.667 22.5 -50s-9.16699 -36.5 -27.5 -54.5s-40.166 -33.667 -65.499 -47c26.667 -5.33301 48.167 -13.833 64.5 -25.5s24.5 -25.834 24.5 -42.501z" />
    <glyph glyph-name="acute" unicode="&#xb4;" 
d="M133 835c16 14.667 32.001 13.001 48.001 -4.99902c10 -12 14.833 -25 14.5 -39s-4.83301 -24 -13.5 -30c-80.667 -58.667 -122.334 -88.667 -125.001 -90s-5.5 -2.83301 -8.5 -4.5s-5.5 -2.83398 -7.5 -3.50098s-4.33301 -1.5 -7 -2.5s-5 -1.33301 -7 -1
s-4.33301 0.5 -7 0.5c-2.66699 0.666992 -6.66699 3.66699 -12 9c-13.333 16 -8 35.333 16 58z" />
    <glyph glyph-name="uni00B5" unicode="&#xb5;" horiz-adv-x="590" 
d="M493 503.5c2.66699 3.66699 8.49805 5.49902 17.498 5.49902s19.833 -9.33301 32.5 -28s17.667 -36.334 15 -53.001c0 -2.66699 -14.5 -53.167 -43.5 -151.5s-51.167 -171.166 -66.5 -218.499c-8.66699 -28 -20 -42 -34 -42c-8.66699 0 -15.667 4 -21 12
s-7.5 21.5 -6.5 40.5s8.5 53.167 22.5 102.5c-26.667 -44 -55.834 -80.833 -87.501 -110.5s-62.834 -44.5 -93.501 -44.5c-20 0 -36.833 6 -50.5 18s-21.5 27 -23.5 45l-28.5 -65.5l-33 -76l-30.5 -66.5c-22 -47.333 -37.667 -71 -47 -71s-18.5 3.33301 -27.5 10
s-13.5 13 -13.5 19s5.16699 21.5 15.5 46.5l49.5 119.5c22.667 54.667 42.834 106.334 60.501 155.001s36.334 105.667 56.001 171s35.167 113 46.5 143s21.333 45 30 45s18.834 -3.5 30.501 -10.5s17.5 -13.5 17.5 -19.5c0 -12.667 -7 -39 -21 -79
c-41.333 -119.333 -62 -209.333 -62 -270c0 -11.333 3.5 -20.833 10.5 -28.5s15.5 -11.5 25.5 -11.5c28.667 0 62.167 25.833 100.5 77.5s71 107.167 98 166.5s43.333 101.5 49 126.5s9.83398 39.333 12.501 43z" />
    <glyph glyph-name="paragraph" unicode="&#xb6;" horiz-adv-x="513" 
d="M68 465c0 50.667 16.999 106.168 50.999 166.501s75 100.833 123 121.5c20 9.33301 50.5 17 91.5 23s72.833 9 95.5 9s38.834 -1.66699 48.501 -5s20 -13.5 31 -30.5s16.167 -33.5 15.5 -49.5c-2.66699 -112.667 -33.667 -280.334 -93 -503.001
c-35.333 -120.667 -58.333 -181 -69 -181c-8 0 -17.333 4.83301 -28 14.5s-15.334 19.167 -14.001 28.5c80 316.667 125.333 540 136 670c-5.33301 -1.33301 -36.333 -7.66602 -93 -18.999c0.666992 -2.66699 1 -6.33398 1 -11.001c-2.66699 -112 -33.667 -279.333 -93 -502
c-36.667 -120.667 -59.5 -181 -68.5 -181s-18.667 4.83301 -29 14.5s-14.833 19.167 -13.5 28.5c6 25.333 19.333 77.833 40 157.5s36.334 142.5 47.001 188.5c-31.333 -24.667 -59.5 -37 -84.5 -37s-47 10.5 -66 31.5s-28.5 42.833 -28.5 65.5z" />
    <glyph glyph-name="periodcentered" unicode="&#xb7;" horiz-adv-x="237" 
d="M89 278.5c-20.667 21 -30.999 38.5 -30.999 52.5s5.5 27.833 16.5 41.5s22.5 20.5 34.5 20.5s26 -16 42 -48s24 -56.333 24 -73c0 -4.66699 -3.5 -10 -10.5 -16s-13.5 -9 -19.5 -9c-16.667 0 -35.334 10.5 -56.001 31.5z" />
    <glyph glyph-name="cedilla" unicode="&#xb8;" 
d="M-118 -167c0 7.33301 9.33496 13 28.002 17s40.167 9.16699 64.5 15.5s41.166 15.5 50.499 27.5c-4.66699 7.33301 -17.334 13.333 -38.001 18s-35 10 -43 16c-4 4.66699 -4 12.167 0 22.5s10.5 25 19.5 44s15.5 35.5 19.5 49.5s15 21 33 21s27 -8.16699 27 -24.5
s-11 -42.5 -33 -78.5c24 2.66699 48.667 -4.33301 74 -21c15.333 -10 23.333 -21.333 24 -34c0.666992 -22.667 -14.5 -43.5 -45.5 -62.5s-72.167 -29.833 -123.5 -32.5c-38 -1.33301 -57 6 -57 22z" />
    <glyph glyph-name="onesuperior" unicode="&#xb9;" horiz-adv-x="153" 
d="M89 368.5c-6.66699 7.66699 -10.0029 14.1641 -10.0029 19.4971s5.83301 41.333 17.5 108s18.5 136.334 20.5 209.001c0 6.66699 1.33301 11.667 4 15s6.83398 4.83301 12.501 4.5s14.334 -5.83301 26.001 -16.5s17.167 -19 16.5 -25
c0 -36.667 -3.66699 -73.5 -11 -110.5s-12.166 -63.167 -14.499 -78.5s-4.33301 -27.666 -6 -36.999l-6 -32c-2.33301 -12 -4.5 -21.667 -6.5 -29s-4.33301 -14.333 -7 -21c-5.33301 -12.667 -10.666 -19 -15.999 -19c-6.66699 0.666992 -13.334 4.83398 -20.001 12.501z
" />
    <glyph glyph-name="ordmasculine" unicode="&#xba;" horiz-adv-x="452" 
d="M200.5 661.5c-20.333 -31 -30.5 -65 -30.5 -102s13.333 -65.5 40 -85.5c38 6 68.333 23.167 91 51.5s34 64 34 107s-15.667 72.833 -47 89.5c-38 -9.33301 -67.167 -29.5 -87.5 -60.5zM369 731c20 -31.333 29.999 -68.832 29.999 -112.499s-18 -87.667 -54 -132
s-81.667 -66.5 -137 -66.5c-29.333 0 -53.833 14.833 -73.5 44.5s-29.5 63.167 -29.5 100.5c0 53.333 17.833 102.166 53.5 146.499s78.834 66.5 129.501 66.5c34 0 61 -15.667 81 -47z" />
    <glyph glyph-name="guillemotright" unicode="&#xbb;" horiz-adv-x="833" 
d="M722 321c0 -18 -6.33398 -32.332 -19.001 -42.999c-27.333 -22.667 -78 -50.167 -152 -82.5s-123 -48.5 -147 -48.5s-36 5 -36 15s46.167 36.5 138.5 79.5s138.5 69.5 138.5 79.5c0 14.667 -21.333 34.5 -64 59.5s-81 42.667 -115 53s-51 19.833 -51 28.5
c0 6 4.66699 13.333 14 22s18 13 26 13c34.667 -0.666992 87.834 -22.334 159.501 -65.001s107.5 -79.667 107.5 -111zM170.999 474.001c38 0 93.334 -17.334 166.001 -52.001s109 -67.667 109 -99c0 -16.667 -23.167 -38.667 -69.5 -66s-96.333 -51 -150 -71
s-90.834 -30 -111.501 -30s-31 5 -31 15s23.5 25.5 70.5 46.5l141 63c47 21 70.5 36.5 70.5 46.5c0 13.333 -21.833 28.833 -65.5 46.5s-88.167 30.834 -133.5 39.501c-26.667 6 -40 13.667 -40 23c0 6 5.33301 13.833 16 23.5s20 14.5 28 14.5z" />
    <glyph glyph-name="onequarter" unicode="&#xbc;" horiz-adv-x="778" 
d="M643 327c7.33301 0 17.167 -6.16797 29.5 -18.501s18.5 -23.166 18.5 -32.499c0 -43.333 -12.5 -106.666 -37.5 -189.999s-46.167 -125 -63.5 -125c-7.33301 0 -13.5 3.66699 -18.5 11s-7.5 14.833 -7.5 22.5s2 18.167 6 31.5c17.333 57.333 28.333 96.333 33 117
c-38 -16 -72.833 -24 -104.5 -24s-56.5 8.16699 -74.5 24.5s-27 37.833 -27 64.5s12.833 62.167 38.5 106.5s52.667 83.166 81 116.499s46.833 50 55.5 50s17.167 -4.16699 25.5 -12.5s12.5 -16 12.5 -23s-12 -25.5 -36 -55.5c-73.333 -90 -110 -149.333 -110 -178
c0 -21.333 10.333 -32 31 -32s44.667 5.33301 72 16s44 17 50 19c4 28 6 57.667 6 89c0 15.333 6.66699 23 20 23zM564.001 751.999c0.666992 0 2.16602 0.500977 4.49902 1.50098s4.16602 0.833008 5.49902 -0.5c8 -2 16.333 -11 25 -27s11.334 -31 8.00098 -45
s-18 -39 -44 -75l-108.5 -144.5c-46.333 -60.333 -88.833 -118.333 -127.5 -174l-97.5 -140l-69.5 -97c-20 -27 -34.167 -44.833 -42.5 -53.5s-15.333 -12.334 -21 -11.001s-12.167 7 -19.5 17s-10 18.667 -8 26c6 27.333 139.333 224.333 400 591l64.5 92l18 25l5 7
c1 1.33301 2.33301 3 4 5s2.83398 3 3.50098 3zM121 339c0 2 7.33203 45.3359 21.999 130.003s23.334 174 26.001 268c0 13.333 4.83301 20 14.5 20s21.667 -6.16699 36 -18.5s21.5 -22.5 21.5 -30.5c-0.666992 -50.667 -8.66699 -115.334 -24 -194.001l-8 -46.5l-8 -46
l-7.5 -40c-3 -15.667 -5.66699 -27.834 -8 -36.501s-4.83301 -17.334 -7.5 -26.001c-5.33301 -16.667 -11 -25 -17 -25c-7.33301 0.666992 -15.833 5.66699 -25.5 15s-14.5 19.333 -14.5 30z" />
    <glyph glyph-name="onehalf" unicode="&#xbd;" horiz-adv-x="778" 
d="M631 68c29.333 0 44 -6.33008 44 -18.9971c0 -14.667 -32 -29.5 -96 -44.5s-112.333 -22.5 -145 -22.5c-14 0 -28.667 6.16699 -44 18.5s-23 25.166 -23 38.499c0 7.33301 8.16699 18.166 24.5 32.499s36 30.5 59 48.5s46.167 37.333 69.5 58s43 43.667 59 69
s24 48 24 68c0 38.667 -13.667 58 -41 58c-21.333 0 -44 -12.333 -68 -37c-8 -8.66699 -14.5 -13 -19.5 -13s-13.333 3.66699 -25 11s-17.5 14.333 -17.5 21c0 16.667 13.833 35 41.5 55s57.167 30 88.5 30s57.333 -11 78 -33s31 -49 31 -81
c0 -52 -21.667 -102.333 -65 -151s-98 -93.334 -164 -134.001c112 18 175 27 189 27zM547 752.003c0.666992 0 2.16797 0.500977 4.50098 1.50098s4.16602 0.833008 5.49902 -0.5c8 -2 16.333 -11 25 -27s11.5 -31 8.5 -45s-17.5 -39 -43.5 -75l-109 -144.5
c-46.667 -60.333 -89.334 -118.333 -128.001 -174l-97.5 -140l-69.5 -97c-20 -27 -34.167 -44.833 -42.5 -53.5s-15.333 -12.334 -21 -11.001s-12.167 7 -19.5 17s-10 18.667 -8 26c6 27.333 139.333 224.333 400 591l64.5 92l18 25l5 7c1 1.33301 2.33301 3 4 5
s2.83398 3 3.50098 3zM104.001 339.004c0 2 7.33105 45.335 21.998 130.002s23.334 174 26.001 268c0 13.333 4.83301 20 14.5 20s21.834 -6.16699 36.501 -18.5s22 -22.5 22 -30.5c-0.666992 -47.333 -9 -112 -25 -194l-8 -46.5l-8 -46l-7.5 -40
c-3 -15.667 -5.66699 -27.834 -8 -36.501s-4.83301 -17.334 -7.5 -26.001c-5.33301 -16.667 -11 -25 -17 -25c-7.33301 0.666992 -15.833 5.66699 -25.5 15s-14.5 19.333 -14.5 30z" />
    <glyph glyph-name="threequarters" unicode="&#xbe;" horiz-adv-x="866" 
d="M750 327c7.33301 0 16.9971 -6.16992 28.9971 -18.5029s18 -23.166 18 -32.499c0 -43.333 -12.667 -106.666 -38 -189.999s-46.666 -125 -63.999 -125c-7.33301 0 -13.166 3.66699 -17.499 11s-6.5 14.833 -6.5 22.5s2 18.167 6 31.5
c17.333 56.667 28.333 95.334 33 116.001c-38.667 -15.333 -73.667 -23 -105 -23s-55.833 8.16699 -73.5 24.5s-26.5 37.833 -26.5 64.5s12.667 62.167 38 106.5s52.333 83.166 81 116.499s47.334 50 56.001 50s17 -4.16699 25 -12.5s12 -16 12 -23s-12.333 -25.5 -37 -55.5
c-72 -89.333 -108 -148.666 -108 -177.999c0 -21.333 10 -32 30 -32c22 0 46.833 5.5 74.5 16.5s43.5 17.167 47.5 18.5c4 28 6 57.667 6 89c0 15.333 6.66699 23 20 23zM680.997 752.997c8 -2 16.5 -11 25.5 -27s11.833 -31 8.5 -45s-17.833 -39 -43.5 -75
s-62 -84.167 -109 -144.5s-89.667 -118.166 -128 -173.499l-97 -140l-69.5 -97.5c-20 -27 -34.333 -44.833 -43 -53.5s-15.834 -12.334 -21.501 -11.001s-12 6.83301 -19 16.5s-9.83301 18.5 -8.5 26.5c6 28 145.667 233.667 419 617c36 49.333 56 77.333 60 84
s6.5 10.667 7.5 12s2.16699 3 3.5 5s2.33301 3.16699 3 3.5s1.83398 1 3.50098 2s3 1.33301 4 1s2.5 -0.5 4.5 -0.5zM371.997 536.497c22 -15 32.999 -34.168 32.999 -57.501s-13.667 -46.5 -41 -69.5s-60.166 -40.833 -98.499 -53.5s-77.833 -19 -118.5 -19s-61 8 -61 24
c0 8 40.667 21 122 39c30 6.66699 57.667 17.334 83 32.001s38 31.667 38 51c0 13.333 -12.833 23.166 -38.5 29.499s-51.167 11.833 -76.5 16.5s-38 11.667 -38 21c0 4.66699 1 8 3 10c4 8.66699 20.167 20.667 48.5 36s54.833 32.333 79.5 51s37 37.667 37 57
c0 17.333 -9.16699 26 -27.5 26s-39.833 -7 -64.5 -21s-40.334 -21 -47.001 -21s-14.667 4.5 -24 13.5s-14 16.833 -14 23.5c0 14 17 28.333 51 43s64.833 22 92.5 22s51.334 -9.5 71.001 -28.5s29.5 -40 29.5 -63s-12.5 -46.167 -37.5 -69.5s-54.5 -43.666 -88.5 -60.999
c36 -6 65 -16.5 87 -31.5z" />
    <glyph glyph-name="questiondown" unicode="&#xbf;" horiz-adv-x="378" 
d="M326 669c20 -20 29.999 -37 29.999 -51s-5.16699 -27.5 -15.5 -40.5s-21.166 -19.5 -32.499 -19.5s-24.833 15.833 -40.5 47.5s-23.5 55.5 -23.5 71.5c0 4 3.16699 8.66699 9.5 14s12.5 8 18.5 8c16 0 34 -10 54 -30zM238.999 60l-3.99902 29.002
c0 3.33301 2.16699 7.66602 6.5 12.999s13.5 8 27.5 8c7.33301 0 16.833 -7.5 28.5 -22.5s17.5 -27.833 17.5 -38.5c0 -36.667 -16.167 -69.167 -48.5 -97.5s-70 -42.5 -113 -42.5s-79.5 13.833 -109.5 41.5s-45 64.5 -45 110.5c0 26.667 9.16699 55 27.5 85
s38.833 56.667 61.5 80c67.333 66.667 109.166 119.667 125.499 159s27 61.333 32 66s9.83301 7 14.5 7c16.667 0 25 -20 25 -60c0 -42.667 -24.333 -89.334 -73 -140.001l-60 -64c-48 -50 -72 -93.333 -72 -130c0 -22 7.83301 -39.833 23.5 -53.5s34.167 -20.5 55.5 -20.5
s40 6.66699 56 20s24 30 24 50z" />
    <glyph glyph-name="Agrave" unicode="&#xc0;" horiz-adv-x="590" 
d="M555 334c0 -10.667 -27.333 -23.668 -82 -39.001c6.66699 -70 9.33398 -122 8.00098 -156c-1.33301 -83.333 -12 -125 -32 -125c-12.667 0 -21.667 7 -27 21c-9.33301 26 -14.833 49.833 -16.5 71.5l-4.5 57.5c-1.33301 16.667 -2.83301 37.167 -4.5 61.5
s-2.83398 40.5 -3.50098 48.5c-58.667 -14.667 -100.667 -25.5 -126 -32.5l-49 -13.5c-30 -76 -52.667 -130.667 -68 -164s-27.833 -50 -37.5 -50s-20.5 5.83301 -32.5 17.5s-18 23.834 -18 36.501c0 5.33301 19 50.666 57 135.999c-13.333 0 -24.833 3.66699 -34.5 11
s-14.5 17 -14.5 29s28.667 27.667 86 47c8.66699 19.333 17.5 40.333 26.5 63s27 64.5 54 125.5s43.667 100.667 50 119s18.333 33.333 36 45s35.5 17.5 53.5 17.5c20 0 37.833 -29.667 53.5 -89s28.167 -131.666 37.5 -216.999c16 1.33301 27 2 33 2
c36.667 0 55 -7.66699 55 -23zM253 317.999c40 10 84.333 19.001 133 27.001c-8 75.333 -19 147 -33 215c-32 -70.667 -65.333 -151.334 -100 -242.001zM231 846c0 14 5.33301 26.333 16 37c18 19.333 35 20.666 51 3.99902l101 -106c10 -10 16.333 -20.333 19 -31
s1.33398 -19.167 -3.99902 -25.5s-10.333 -10.166 -15 -11.499s-10.334 -0.333008 -17.001 3c-10.667 6.66699 -20 13 -28 19l-110 81c-8.66699 6 -13 16 -13 30z" />
    <glyph glyph-name="Aacute" unicode="&#xc1;" horiz-adv-x="590" 
d="M555 334c0 -10.667 -27.333 -23.668 -82 -39.001c6.66699 -70 9.33398 -122 8.00098 -156c-1.33301 -83.333 -12 -125 -32 -125c-12.667 0 -21.667 7 -27 21c-9.33301 26 -14.833 49.833 -16.5 71.5l-4.5 57.5c-1.33301 16.667 -2.83301 37.167 -4.5 61.5
s-2.83398 40.5 -3.50098 48.5c-58.667 -14.667 -100.667 -25.5 -126 -32.5l-49 -13.5c-30 -76 -52.667 -130.667 -68 -164s-27.833 -50 -37.5 -50s-20.5 5.83301 -32.5 17.5s-18 23.834 -18 36.501c0 5.33301 19 50.666 57 135.999c-13.333 0 -24.833 3.66699 -34.5 11
s-14.5 17 -14.5 29s28.667 27.667 86 47c8.66699 19.333 17.5 40.333 26.5 63s27 64.5 54 125.5s43.667 100.667 50 119s18.333 33.333 36 45s35.5 17.5 53.5 17.5c20 0 37.833 -29.667 53.5 -89s28.167 -131.666 37.5 -216.999c16 1.33301 27 2 33 2
c36.667 0 55 -7.66699 55 -23zM253 317.999c40 10 84.333 19.001 133 27.001c-8 75.333 -19 147 -33 215c-32 -70.667 -65.333 -151.334 -100 -242.001zM534 815c-80.667 -58.667 -122.333 -88.666 -125 -89.999s-5.5 -2.83301 -8.5 -4.5s-5.5 -2.83398 -7.5 -3.50098
s-4.33301 -1.5 -7 -2.5s-5 -1.33301 -7 -1s-4.33301 0.5 -7 0.5c-2.66699 0.666992 -6.66699 3.66699 -12 9c-13.333 16 -8 35.333 16 58l109 108c16 14.667 32 13 48 -5c10 -12 14.833 -25 14.5 -39s-4.83301 -24 -13.5 -30z" />
    <glyph glyph-name="Acircumflex" unicode="&#xc2;" horiz-adv-x="590" 
d="M555 334c0 -10.667 -27.333 -23.668 -82 -39.001c6.66699 -70 9.33398 -122 8.00098 -156c-1.33301 -83.333 -12 -125 -32 -125c-12.667 0 -21.667 7 -27 21c-9.33301 26 -14.833 49.833 -16.5 71.5l-4.5 57.5c-1.33301 16.667 -2.83301 37.167 -4.5 61.5
s-2.83398 40.5 -3.50098 48.5c-58.667 -14.667 -100.667 -25.5 -126 -32.5l-49 -13.5c-30 -76 -52.667 -130.667 -68 -164s-27.833 -50 -37.5 -50s-20.5 5.83301 -32.5 17.5s-18 23.834 -18 36.501c0 5.33301 19 50.666 57 135.999c-13.333 0 -24.833 3.66699 -34.5 11
s-14.5 17 -14.5 29s28.667 27.667 86 47c8.66699 19.333 17.5 40.333 26.5 63s27 64.5 54 125.5s43.667 100.667 50 119s18.333 33.333 36 45s35.5 17.5 53.5 17.5c20 0 37.833 -29.667 53.5 -89s28.167 -131.666 37.5 -216.999c16 1.33301 27 2 33 2
c36.667 0 55 -7.66699 55 -23zM253 317.999c40 10 84.333 19.001 133 27.001c-8 75.333 -19 147 -33 215c-32 -70.667 -65.333 -151.334 -100 -242.001zM281.5 719.5c-13.667 -9.66699 -25 -14.501 -34 -14.501s-16.333 2.66699 -22 8s-8.5 13.666 -8.5 24.999
c0 24 23 48.667 69 74c7.33301 4 16.333 9.33301 27 16l26 16l21 12c16 8 27.167 12 33.5 12s12.333 -1.66699 18 -5s9.83398 -6.66602 12.501 -9.99902c11.333 -12 21 -23.167 29 -33.5s16.333 -20.5 25 -30.5l20 -23l16 -19c10 -13.333 15 -23.833 15 -31.5
s-2.5 -13.5 -7.5 -17.5s-10.167 -6 -15.5 -6s-10 0.666992 -14 2s-8.16699 3.5 -12.5 6.5l-12 8.5c-3.66699 2.66699 -8 6.66699 -13 12l-12.5 13.5c-3.33301 3.66699 -7.66602 8.83398 -12.999 15.501l-12.5 15.5l-12.5 16l-12 15.5c-18.667 -10 -38.334 -23 -59.001 -39
s-37.834 -28.833 -51.501 -38.5z" />
    <glyph glyph-name="Atilde" unicode="&#xc3;" horiz-adv-x="590" 
d="M555 334c0 -10.667 -27.333 -23.668 -82 -39.001c6.66699 -70 9.33398 -122 8.00098 -156c-1.33301 -83.333 -12 -125 -32 -125c-12.667 0 -21.667 7 -27 21c-9.33301 26 -14.833 49.833 -16.5 71.5l-4.5 57.5c-1.33301 16.667 -2.83301 37.167 -4.5 61.5
s-2.83398 40.5 -3.50098 48.5c-58.667 -14.667 -100.667 -25.5 -126 -32.5l-49 -13.5c-30 -76 -52.667 -130.667 -68 -164s-27.833 -50 -37.5 -50s-20.5 5.83301 -32.5 17.5s-18 23.834 -18 36.501c0 5.33301 19 50.666 57 135.999c-13.333 0 -24.833 3.66699 -34.5 11
s-14.5 17 -14.5 29s28.667 27.667 86 47c8.66699 19.333 17.5 40.333 26.5 63s27 64.5 54 125.5s43.667 100.667 50 119s18.333 33.333 36 45s35.5 17.5 53.5 17.5c20 0 37.833 -29.667 53.5 -89s28.167 -131.666 37.5 -216.999c16 1.33301 27 2 33 2
c36.667 0 55 -7.66699 55 -23zM253 317.999c40 10 84.333 19.001 133 27.001c-8 75.333 -19 147 -33 215c-32 -70.667 -65.333 -151.334 -100 -242.001zM296 751.5c-16 -23 -29.1689 -34.5 -39.502 -34.5s-18.333 2.5 -24 7.5s-8.16699 11.833 -7.5 20.5
c0.666992 24.667 13.667 50 39 76s51 39 77 39c15.333 0 28.833 -3.83301 40.5 -11.5s20.5 -16.5 26.5 -26.5c16 -26 30.333 -40 43 -42c12 1.33301 25 12.833 39 34.5s27 32.5 39 32.5c16 0 23.833 -11 23.5 -33s-10.666 -44.667 -30.999 -68s-43.166 -35 -68.499 -35
c-36 0 -72.333 28.667 -109 86c-16 -7.33301 -32 -22.5 -48 -45.5z" />
    <glyph glyph-name="Adieresis" unicode="&#xc4;" horiz-adv-x="590" 
d="M555 334c0 -10.667 -27.333 -23.668 -82 -39.001c6.66699 -70 9.33398 -122 8.00098 -156c-1.33301 -83.333 -12 -125 -32 -125c-12.667 0 -21.667 7 -27 21c-9.33301 26 -14.833 49.833 -16.5 71.5l-4.5 57.5c-1.33301 16.667 -2.83301 37.167 -4.5 61.5
s-2.83398 40.5 -3.50098 48.5c-58.667 -14.667 -100.667 -25.5 -126 -32.5l-49 -13.5c-30 -76 -52.667 -130.667 -68 -164s-27.833 -50 -37.5 -50s-20.5 5.83301 -32.5 17.5s-18 23.834 -18 36.501c0 5.33301 19 50.666 57 135.999c-13.333 0 -24.833 3.66699 -34.5 11
s-14.5 17 -14.5 29s28.667 27.667 86 47c8.66699 19.333 17.5 40.333 26.5 63s27 64.5 54 125.5s43.667 100.667 50 119s18.333 33.333 36 45s35.5 17.5 53.5 17.5c20 0 37.833 -29.667 53.5 -89s28.167 -131.666 37.5 -216.999c16 1.33301 27 2 33 2
c36.667 0 55 -7.66699 55 -23zM253 317.999c40 10 84.333 19.001 133 27.001c-8 75.333 -19 147 -33 215c-32 -70.667 -65.333 -151.334 -100 -242.001zM333 709c-14 0 -29.833 8.83301 -47.5 26.5s-26.5 32.667 -26.5 45s4.5 23.833 13.5 34.5s18.667 16 29 16
s22.333 -12.5 36 -37.5s20.5 -42.5 20.5 -52.5s-2.83301 -17.833 -8.5 -23.5s-11.167 -8.5 -16.5 -8.5zM481 709c-14.667 0 -30.832 8.66602 -48.499 25.999s-26.5 32.333 -26.5 45s4.66699 24.334 14 35.001s19.166 16 29.499 16s22.166 -12.5 35.499 -37.5
s20 -42.5 20 -52.5s-2.66699 -17.833 -8 -23.5s-10.666 -8.5 -15.999 -8.5z" />
    <glyph glyph-name="Aring" unicode="&#xc5;" horiz-adv-x="590" 
d="M555 334c0 -10.667 -27.333 -23.668 -82 -39.001c6.66699 -70 9.33398 -122 8.00098 -156c-1.33301 -83.333 -12 -125 -32 -125c-12.667 0 -21.667 7 -27 21c-9.33301 26 -14.833 49.833 -16.5 71.5l-4.5 57.5c-1.33301 16.667 -2.83301 37.167 -4.5 61.5
s-2.83398 40.5 -3.50098 48.5c-58.667 -14.667 -100.667 -25.5 -126 -32.5l-49 -13.5c-30 -76 -52.667 -130.667 -68 -164s-27.833 -50 -37.5 -50s-20.5 5.83301 -32.5 17.5s-18 23.834 -18 36.501c0 5.33301 19 50.666 57 135.999c-13.333 0 -24.833 3.66699 -34.5 11
s-14.5 17 -14.5 29s28.667 27.667 86 47c8.66699 19.333 17.5 40.333 26.5 63s27 64.5 54 125.5s43.667 100.667 50 119s18.333 33.333 36 45s35.5 17.5 53.5 17.5c20 0 37.833 -29.667 53.5 -89s28.167 -131.666 37.5 -216.999c16 1.33301 27 2 33 2
c36.667 0 55 -7.66699 55 -23zM253 317.999c40 10 84.333 19.001 133 27.001c-8 75.333 -19 147 -33 215c-32 -70.667 -65.333 -151.334 -100 -242.001zM386 701c-23.333 0 -42.499 9.5 -57.499 28.5s-20.833 41.5 -17.5 67.5s14.166 48.5 32.499 67.5s39.333 28.5 63 28.5
s43 -9.5 58 -28.5s20.833 -41.5 17.5 -67.5s-14.333 -48.5 -33 -67.5s-39.667 -28.5 -63 -28.5zM371.001 765c5.33301 -8.66699 12.168 -13 20.501 -13s16 4.33301 23 13s11 18.834 12 30.501s-1 21.834 -6 30.501s-11.833 13 -20.5 13s-16.167 -4.33301 -22.5 -13
s-10.333 -18.834 -12 -30.501s0.166016 -21.834 5.49902 -30.501z" />
    <glyph glyph-name="AE" unicode="&#xc6;" horiz-adv-x="790" 
d="M157 249c-51.333 -126 -82.3301 -196.661 -92.9971 -211.994s-19.667 -23 -27 -23s-16 5.5 -26 16.5s-15 21.667 -15 32s5.33301 28.166 16 53.499l47 107.5c20.667 46.333 45 104.5 73 174.5l86 205c11.333 25.333 36.833 42 76.5 50s96.5 12 170.5 12
s132 -1.83301 174 -5.5s70 -8.5 84 -14.5s20 -13.667 18 -23c-2 -11.333 -18.5 -19.833 -49.5 -25.5s-92.167 -9.83398 -183.5 -12.501h-6c2 -6 3 -12.333 3 -19c0 -42 -12.333 -107.333 -37 -196c45.333 4 78.166 6 98.499 6s34.666 -0.333008 42.999 -1
s17.166 -2 26.499 -4c18.667 -4 28 -12.333 28 -25c0 -10.667 -16 -19.334 -48 -26.001s-88.667 -15.334 -170 -26.001c-32 -104 -48 -163.667 -48 -179c0 -13.333 7.66699 -20 23 -20c72.667 0 152.334 11 239.001 33c29.333 7.33301 46.333 11 51 11
c11.333 0 17 -7.33301 17 -22c0 -24 -34.5 -47.167 -103.5 -69.5s-136.5 -33.5 -202.5 -33.5c-33.333 0 -60.5 8.16699 -81.5 24.5s-31.5 37.333 -31.5 63s14 85.5 42 179.5c-27.333 -2.66699 -64.333 -8.33398 -111 -17.001s-74.334 -13.334 -83.001 -14.001z
M375.003 359.006c28 93.333 43.332 167.332 45.999 221.999c-75.333 -3.33301 -116.666 -8.66602 -123.999 -15.999c-14 -14 -50 -92.667 -108 -236c44.667 10.667 106.667 20.667 186 30z" />
    <glyph glyph-name="Ccedilla" unicode="&#xc7;" horiz-adv-x="572" 
d="M453 565c-23.333 0 -52.1641 -11.833 -86.4971 -35.5s-67 -53 -98 -88s-57.5 -75.5 -79.5 -121.5s-33 -88.667 -33 -128c0 -25.333 8.83301 -46.166 26.5 -62.499s43 -24.5 76 -24.5s68 6.33301 105 19s67.333 25.334 91 38.001s38.834 19 45.501 19
c11.333 0 17 -7.33301 17 -22c0 -21.333 -30.333 -49.833 -91 -85.5s-116.667 -54.834 -168 -57.501c-6.66699 -16 -15.334 -33 -26.001 -51c24 2.66699 48.667 -4.33301 74 -21c15.333 -10 23.333 -21.333 24 -34c0.666992 -22.667 -14.5 -43.5 -45.5 -62.5
s-72.167 -29.833 -123.5 -32.5c-38 -1.33301 -57 6 -57 22c0 7.33301 9.33301 13 28 17s40.167 9.16699 64.5 15.5s41.166 15.5 50.499 27.5c-4.66699 7.33301 -17.334 13.333 -38.001 18s-35 10 -43 16c-4 11.333 -0.666992 26.333 10 45c8.66699 17.333 15.667 34 21 50
c-36.667 13.333 -68.334 36.166 -95.001 68.499s-40 65.5 -40 99.5c0 57.333 19.5 122 58.5 194s89.167 134.333 150.5 187s120.333 79 177 79c18 0 36 -10.167 54 -30.5s27 -37.5 27 -51.5s-4.66699 -21 -14 -21c-4.66699 0 -13.167 2.33301 -25.5 7s-24.5 7 -36.5 7z" />
    <glyph glyph-name="Egrave" unicode="&#xc8;" horiz-adv-x="552" 
d="M242 373l175.998 8.99902c25.333 0 38 -5.33301 38 -16c0 -43.333 -85.667 -65 -257 -65c-34.667 -108 -52 -170.333 -52 -187c0 -13.333 7.66699 -20 23 -20c73.333 0 153.333 11 240 33c29.333 7.33301 46.333 11 51 11c11.333 0 17 -7.33301 17 -22
c0 -24 -34.667 -47.167 -104 -69.5s-137 -33.5 -203 -33.5c-29.333 0 -55.333 8.33301 -78 25s-34 37.5 -34 62.5s9.33301 67.5 28 127.5s37.334 123.833 56.001 191.5s28 124.5 28 170.5c0 10.667 2 19 6 25c12.667 22.667 82.167 34 208.5 34s189.5 -10 189.5 -30
c0 -13.333 -13.667 -22.333 -41 -27c-21.333 -4 -51.166 -7.33301 -89.499 -10s-63.5 -4.66699 -75.5 -6s-50 -6.66602 -114 -15.999v-2c0 -44 -11.667 -105.667 -35 -185h22zM247.998 845.999c0 14 5.33301 26.333 16 37c18 19.333 35 20.666 51 3.99902l101 -106
c10 -10 16.333 -20.333 19 -31s1.33398 -19.167 -3.99902 -25.5s-10.333 -10.166 -15 -11.499s-10.334 -0.333008 -17.001 3c-10.667 6.66699 -20 13 -28 19l-110 81c-8.66699 6 -13 16 -13 30z" />
    <glyph glyph-name="Eacute" unicode="&#xc9;" horiz-adv-x="552" 
d="M242 373l175.998 8.99902c25.333 0 38 -5.33301 38 -16c0 -43.333 -85.667 -65 -257 -65c-34.667 -108 -52 -170.333 -52 -187c0 -13.333 7.66699 -20 23 -20c73.333 0 153.333 11 240 33c29.333 7.33301 46.333 11 51 11c11.333 0 17 -7.33301 17 -22
c0 -24 -34.667 -47.167 -104 -69.5s-137 -33.5 -203 -33.5c-29.333 0 -55.333 8.33301 -78 25s-34 37.5 -34 62.5s9.33301 67.5 28 127.5s37.334 123.833 56.001 191.5s28 124.5 28 170.5c0 10.667 2 19 6 25c12.667 22.667 82.167 34 208.5 34s189.5 -10 189.5 -30
c0 -13.333 -13.667 -22.333 -41 -27c-21.333 -4 -51.166 -7.33301 -89.499 -10s-63.5 -4.66699 -75.5 -6s-50 -6.66602 -114 -15.999v-2c0 -44 -11.667 -105.667 -35 -185h22zM550.998 814.999c-80.667 -58.667 -122.334 -88.666 -125.001 -89.999s-5.5 -2.83301 -8.5 -4.5
s-5.5 -2.83398 -7.5 -3.50098s-4.33301 -1.5 -7 -2.5s-5 -1.33301 -7 -1s-4 0.5 -6 0.5c-3.33301 0.666992 -7.66602 3.66699 -12.999 9c-13.333 16 -8 35.333 16 58l109 108c16 14.667 32 13 48 -5c10 -12 14.833 -25 14.5 -39s-4.83301 -24 -13.5 -30z" />
    <glyph glyph-name="Ecircumflex" unicode="&#xca;" horiz-adv-x="552" 
d="M242 373l175.998 8.99902c25.333 0 38 -5.33301 38 -16c0 -43.333 -85.667 -65 -257 -65c-34.667 -108 -52 -170.333 -52 -187c0 -13.333 7.66699 -20 23 -20c73.333 0 153.333 11 240 33c29.333 7.33301 46.333 11 51 11c11.333 0 17 -7.33301 17 -22
c0 -24 -34.667 -47.167 -104 -69.5s-137 -33.5 -203 -33.5c-29.333 0 -55.333 8.33301 -78 25s-34 37.5 -34 62.5s9.33301 67.5 28 127.5s37.334 123.833 56.001 191.5s28 124.5 28 170.5c0 10.667 2 19 6 25c12.667 22.667 82.167 34 208.5 34s189.5 -10 189.5 -30
c0 -13.333 -13.667 -22.333 -41 -27c-21.333 -4 -51.166 -7.33301 -89.499 -10s-63.5 -4.66699 -75.5 -6s-50 -6.66602 -114 -15.999v-2c0 -44 -11.667 -105.667 -35 -185h22zM298.498 719.499c-13.667 -9.66699 -24.998 -14.502 -33.998 -14.502s-16.333 2.66699 -22 8
s-8.5 13.666 -8.5 24.999c0 24 23 48.667 69 74c7.33301 4 16.333 9.33301 27 16l26 16c6.66699 4 14 8 22 12c15.333 8 26.166 12 32.499 12s12.333 -1.66699 18 -5s10.167 -6.66602 13.5 -9.99902c10.667 -12 20 -23.167 28 -33.5s16.333 -20.5 25 -30.5l20 -23
c4.66699 -5.33301 9.66699 -11.666 15 -18.999c10.667 -13.333 16 -23.833 16 -31.5s-2.5 -13.5 -7.5 -17.5s-10.167 -6 -15.5 -6s-10 0.666992 -14 2s-8.16699 3.5 -12.5 6.5l-12 8.5c-3.66699 2.66699 -8 6.66699 -13 12l-12.5 13.5
c-3.33301 3.66699 -7.66602 8.83398 -12.999 15.501l-12.5 15.5l-12.5 16l-12 15.5c-18.667 -10 -38.334 -23 -59.001 -39s-37.834 -28.833 -51.501 -38.5z" />
    <glyph glyph-name="Edieresis" unicode="&#xcb;" horiz-adv-x="552" 
d="M242 373l175.998 8.99902c25.333 0 38 -5.33301 38 -16c0 -43.333 -85.667 -65 -257 -65c-34.667 -108 -52 -170.333 -52 -187c0 -13.333 7.66699 -20 23 -20c73.333 0 153.333 11 240 33c29.333 7.33301 46.333 11 51 11c11.333 0 17 -7.33301 17 -22
c0 -24 -34.667 -47.167 -104 -69.5s-137 -33.5 -203 -33.5c-29.333 0 -55.333 8.33301 -78 25s-34 37.5 -34 62.5s9.33301 67.5 28 127.5s37.334 123.833 56.001 191.5s28 124.5 28 170.5c0 10.667 2 19 6 25c12.667 22.667 82.167 34 208.5 34s189.5 -10 189.5 -30
c0 -13.333 -13.667 -22.333 -41 -27c-21.333 -4 -51.166 -7.33301 -89.499 -10s-63.5 -4.66699 -75.5 -6s-50 -6.66602 -114 -15.999v-2c0 -44 -11.667 -105.667 -35 -185h22zM349.998 708.999c-14.667 0 -30.667 8.83301 -48 26.5s-26 32.667 -26 45s4.5 23.833 13.5 34.5
s18.667 16 29 16s22.333 -12.5 36 -37.5s20.5 -42.5 20.5 -52.5s-2.83301 -17.833 -8.5 -23.5s-11.167 -8.5 -16.5 -8.5zM497.998 708.999c-14.667 0 -30.832 8.66602 -48.499 25.999s-26.5 32.333 -26.5 45s4.66699 24.334 14 35.001s19.166 16 29.499 16
s22.166 -12.5 35.499 -37.5s20 -42.5 20 -52.5s-2.66699 -17.833 -8 -23.5s-10.666 -8.5 -15.999 -8.5z" />
    <glyph glyph-name="Igrave" unicode="&#xcc;" horiz-adv-x="281" 
d="M92 846c0 14 5.33301 26.333 16 37c18 19.333 35 20.666 51 3.99902l101 -106c10 -10 16.333 -20.333 19 -31s1.33398 -19.167 -3.99902 -25.5s-10.333 -10.166 -15 -11.499s-10.334 -0.333008 -17.001 3c-10.667 6.66699 -20 13 -28 19l-110 81
c-8.66699 6 -13 16 -13 30zM162 623c0 11.333 1.33203 19.168 3.99902 23.501s8.66699 6.5 18 6.5s21.5 -9.33301 36.5 -28s22.5 -37 22.5 -55c0 -32.667 -21.333 -134.334 -64 -305.001l-17.5 -71l-17 -69.5c-4.33301 -17.667 -9.16602 -35.834 -14.499 -54.501
c-10.667 -36 -19.334 -54 -26.001 -54c-9.33301 0 -20.166 6.83301 -32.499 20.5s-18.5 26.834 -18.5 39.501s18.167 97.5 54.5 254.5s54.5 254.5 54.5 292.5z" />
    <glyph glyph-name="Iacute" unicode="&#xcd;" horiz-adv-x="281" 
d="M346 889c16 14.667 32 13.001 48 -4.99902c10 -12 14.833 -25 14.5 -39s-4.83301 -24 -13.5 -30c-80.667 -58.667 -122.334 -88.667 -125.001 -90s-5.5 -2.83301 -8.5 -4.5s-5.5 -2.83398 -7.5 -3.50098s-4.33301 -1.5 -7 -2.5s-5 -1.33301 -7 -1s-4 0.5 -6 0.5
c-3.33301 0.666992 -7.66602 3.66699 -12.999 9c-13.333 16 -8 35.333 16 58zM162 623.001c0 11.333 1.33203 19.168 3.99902 23.501s8.66699 6.5 18 6.5s21.5 -9.33301 36.5 -28s22.5 -37 22.5 -55c0 -32.667 -21.333 -134.334 -64 -305.001l-17.5 -71l-17 -69.5
c-4.33301 -17.667 -9.16602 -35.834 -14.499 -54.501c-10.667 -36 -19.334 -54 -26.001 -54c-9.33301 0 -20.166 6.83301 -32.499 20.5s-18.5 26.834 -18.5 39.501s18.167 97.5 54.5 254.5s54.5 254.5 54.5 292.5z" />
    <glyph glyph-name="Icircumflex" unicode="&#xce;" horiz-adv-x="281" 
d="M386.5 727.5c2.33301 -5.66699 3.50098 -11.002 3.50098 -16.002s-2.5 -9.5 -7.5 -13.5s-10.167 -6 -15.5 -6s-10 0.666992 -14 2s-8.16699 3.5 -12.5 6.5l-12 8.5c-3.66699 2.66699 -8 6.66699 -13 12l-12.5 13.5c-3.33301 3.66699 -7.66602 8.83398 -12.999 15.501
l-12.5 15.5l-12.5 16l-12 15.5c-18.667 -10 -38.334 -23 -59.001 -39s-37.834 -28.833 -51.501 -38.5s-25 -14.5 -34 -14.5s-16.333 2.66699 -22 8s-8.5 13.666 -8.5 24.999c0 24 23 48.667 69 74c7.33301 4 16.333 9.33301 27 16l26 16c6.66699 4 14 8 22 12
c15.333 8 26.166 12 32.499 12s12.333 -1.66699 18 -5s10.167 -6.66602 13.5 -9.99902c10.667 -12 20 -23.167 28 -33.5s16.333 -20.5 25 -30.5l20 -23c4.66699 -5.33301 9.83398 -11.666 15.501 -18.999s9.66699 -13.833 12 -19.5zM162.001 622.998
c0 11.333 1.33203 19.168 3.99902 23.501s8.66699 6.5 18 6.5s21.5 -9.33301 36.5 -28s22.5 -37 22.5 -55c0 -32.667 -21.333 -134.334 -64 -305.001l-17.5 -71l-17 -69.5c-4.33301 -17.667 -9.16602 -35.834 -14.499 -54.501c-10.667 -36 -19.334 -54 -26.001 -54
c-9.33301 0 -20.166 6.83301 -32.499 20.5s-18.5 26.834 -18.5 39.501s18.167 97.5 54.5 254.5s54.5 254.5 54.5 292.5z" />
    <glyph glyph-name="Idieresis" unicode="&#xcf;" horiz-adv-x="281" 
d="M346 793.5c13.333 -25 20.002 -42.501 20.002 -52.501s-2.66699 -17.833 -8 -23.5s-10.666 -8.5 -15.999 -8.5c-14.667 0 -30.834 8.66699 -48.501 26s-26.5 32.333 -26.5 45s4.66699 24.334 14 35.001s19.166 16 29.499 16s22.166 -12.5 35.499 -37.5zM198.502 793.499
c13.667 -25 20.5 -42.5 20.5 -52.5s-2.83301 -17.833 -8.5 -23.5s-11.167 -8.5 -16.5 -8.5c-14.667 0 -30.667 8.83301 -48 26.5s-26 32.667 -26 45s4.5 23.833 13.5 34.5s18.667 16 29 16s22.333 -12.5 36 -37.5zM162.002 622.999c0 11.333 1.33203 19.168 3.99902 23.501
s8.66699 6.5 18 6.5s21.5 -9.33301 36.5 -28s22.5 -37 22.5 -55c0 -32.667 -21.333 -134.334 -64 -305.001l-17.5 -71l-17 -69.5c-4.33301 -17.667 -9.16602 -35.834 -14.499 -54.501c-10.667 -36 -19.334 -54 -26.001 -54c-9.33301 0 -20.166 6.83301 -32.499 20.5
s-18.5 26.834 -18.5 39.501s18.167 97.5 54.5 254.5s54.5 254.5 54.5 292.5z" />
    <glyph glyph-name="Eth" unicode="&#xd0;" horiz-adv-x="615" 
d="M143 633c42 0 87.499 -8.66504 136.499 -25.998s94.333 -40.333 136 -69s76.5 -64 104.5 -106s42 -85 42 -129c0 -28.667 -15.667 -61.5 -47 -98.5s-69 -70.667 -113 -101s-90.667 -56 -140 -77s-90.666 -31.5 -123.999 -31.5c-12.667 0 -26.5 9.83301 -41.5 29.5
s-22.5 39.5 -22.5 59.5s15.333 84.333 46 193c-48 -2.66699 -72 -2.33398 -72 0.999023c-11.333 1.33301 -18.166 5.66602 -20.499 12.999s0.5 14.333 8.5 21c-1.33301 6.66699 33 17.667 103 33c25.333 90 39.666 157.333 42.999 202c-18 8 -32.667 18.333 -44 31
s-17 24 -17 34c0 14 7.33301 21 22 21zM473.999 310.002c0 38.667 -22.332 80.333 -66.999 125s-95 75.667 -151 93c2.66699 -13.333 4 -23.333 4 -30c0 -25.333 -10 -73 -30 -143c46 0 69.333 -2 70 -6c14 0 24.167 -3 30.5 -9s7.16602 -13 2.49902 -21
c1.33301 -7.33301 -39.667 -18 -123 -32l-23 -80c-13.333 -46 -22 -87 -26 -123c42 6.66699 88.167 24.667 138.5 54s92 60.5 125 93.5s49.5 59.167 49.5 78.5z" />
    <glyph glyph-name="Ntilde" unicode="&#xd1;" horiz-adv-x="637" 
d="M344 860c15.333 0 28.8311 -3.83301 40.498 -11.5s20.5 -16.5 26.5 -26.5c16 -26 30.333 -40 43 -42c12 1.33301 25 12.833 39 34.5s27 32.5 39 32.5c16 0 23.833 -11 23.5 -33s-10.666 -44.667 -30.999 -68s-43.166 -35 -68.499 -35c-36 0 -72.333 28.667 -109 86
c-16 -7.33301 -32 -22.5 -48 -45.5s-29.167 -34.5 -39.5 -34.5s-18.333 2.5 -24 7.5s-8.16699 11.833 -7.5 20.5c0.666992 24.667 13.667 50 39 76s51 39 77 39zM441.998 16c-8.66699 0 -18.668 4.5 -30.001 13.5s-20.166 19.833 -26.499 32.5s-19.666 43 -39.999 91
l-68 161l-53.5 126l-60.5 -228c-23 -87.333 -38 -141.833 -45 -163.5s-14.667 -32.5 -23 -32.5s-18.666 7.5 -30.999 22.5s-18.5 29.833 -18.5 44.5s20.333 98.667 61 252s61 249.333 61 288c0 10.667 1.5 18.334 4.5 23.001s8.5 7 16.5 7s18.333 -5.83301 31 -17.5
s21.167 -22.834 25.5 -33.501l42.5 -102c59.333 -144.667 108.666 -260.334 147.999 -347.001c20.667 56.667 37.167 113.5 49.5 170.5s19.833 103.5 22.5 139.5c7.33301 96 13.166 152 17.499 168s12.5 24 24.5 24s25 -7.83301 39 -23.5s21 -30.167 21 -43.5
c0.666992 -52 -6.83301 -122.667 -22.5 -212s-37.167 -171.666 -64.5 -246.999s-54.333 -113 -81 -113z" />
    <glyph glyph-name="Ograve" unicode="&#xd2;" horiz-adv-x="563" 
d="M255 846c0 14 5.33301 26.333 16 37c18 19.333 35 20.666 51 3.99902l101 -106c10 -10 16.333 -20.333 19 -31s1.33398 -19.167 -3.99902 -25.5s-10.333 -10.166 -15 -11.499s-10.334 -0.333008 -17.001 3c-10.667 6.66699 -20 13 -28 19l-110 81
c-8.66699 6 -13 16 -13 30zM425 530.5c-16.667 27.667 -35.333 41.502 -56 41.502s-44.167 -11.333 -70.5 -34s-51.5 -51 -75.5 -85s-44.667 -73.833 -62 -119.5s-26 -87.334 -26 -125.001s6.66699 -66.5 20 -86.5s30 -30 50 -30c30 0 64.333 17.833 103 53.5
s72 79.167 100 130.5s42 99.666 42 144.999s-8.33301 81.833 -25 109.5zM51.001 193.002c0 56.667 9.99902 113.498 29.999 170.498s45.167 106.5 75.5 148.5s64 76.167 101 102.5s71.5 39.5 103.5 39.5c50 0 91.833 -23 125.5 -69s50.5 -98.167 50.5 -156.5
s-15.333 -119.166 -46 -182.499s-72.667 -117.5 -126 -162.5s-108.666 -67.5 -165.999 -67.5c-40 0 -74.667 19.333 -104 58s-44 78.334 -44 119.001z" />
    <glyph glyph-name="Oacute" unicode="&#xd3;" horiz-adv-x="563" 
d="M425 530.5c-16.667 27.667 -35.333 41.502 -56 41.502s-44.167 -11.333 -70.5 -34s-51.5 -51 -75.5 -85s-44.667 -73.833 -62 -119.5s-26 -87.334 -26 -125.001s6.66699 -66.5 20 -86.5s30 -30 50 -30c30 0 64.333 17.833 103 53.5s72 79.167 100 130.5
s42 99.666 42 144.999s-8.33301 81.833 -25 109.5zM51.001 193.002c0 56.667 9.99902 113.498 29.999 170.498s45.167 106.5 75.5 148.5s64 76.167 101 102.5s71.5 39.5 103.5 39.5c50 0 91.833 -23 125.5 -69s50.5 -98.167 50.5 -156.5s-15.333 -119.166 -46 -182.499
s-72.667 -117.5 -126 -162.5s-108.666 -67.5 -165.999 -67.5c-40 0 -74.667 19.333 -104 58s-44 78.334 -44 119.001zM509 889c16 14.667 32.001 13.001 48.001 -4.99902c10 -12 14.833 -25 14.5 -39s-4.83301 -24 -13.5 -30c-80.667 -58.667 -122.334 -88.667 -125.001 -90
s-5.5 -2.83301 -8.5 -4.5s-5.5 -2.83398 -7.5 -3.50098s-4.33301 -1.5 -7 -2.5s-5 -1.33301 -7 -1s-4.33301 0.5 -7 0.5c-2.66699 0.666992 -6.66699 3.66699 -12 9c-13.333 16 -8 35.333 16 58z" />
    <glyph glyph-name="Ocircumflex" unicode="&#xd4;" horiz-adv-x="563" 
d="M425 530.5c-16.667 27.667 -35.333 41.502 -56 41.502s-44.167 -11.333 -70.5 -34s-51.5 -51 -75.5 -85s-44.667 -73.833 -62 -119.5s-26 -87.334 -26 -125.001s6.66699 -66.5 20 -86.5s30 -30 50 -30c30 0 64.333 17.833 103 53.5s72 79.167 100 130.5
s42 99.666 42 144.999s-8.33301 81.833 -25 109.5zM51.001 193.002c0 56.667 9.99902 113.498 29.999 170.498s45.167 106.5 75.5 148.5s64 76.167 101 102.5s71.5 39.5 103.5 39.5c50 0 91.833 -23 125.5 -69s50.5 -98.167 50.5 -156.5s-15.333 -119.166 -46 -182.499
s-72.667 -117.5 -126 -162.5s-108.666 -67.5 -165.999 -67.5c-40 0 -74.667 19.333 -104 58s-44 78.334 -44 119.001zM549.5 727.5c2.33301 -5.66699 3.49805 -11.002 3.49805 -16.002s-2.5 -9.5 -7.5 -13.5s-10.167 -6 -15.5 -6s-10 0.666992 -14 2s-8.16699 3.5 -12.5 6.5
l-12 8.5c-3.66699 2.66699 -8 6.66699 -13 12l-12.5 13.5c-3.33301 3.66699 -7.66602 8.83398 -12.999 15.501l-12.5 15.5l-12.5 16l-12 15.5c-18.667 -10 -38.334 -23 -59.001 -39s-37.834 -28.833 -51.501 -38.5s-25 -14.5 -34 -14.5s-16.333 2.66699 -22 8
s-8.5 13.666 -8.5 24.999c0 24 23 48.667 69 74c7.33301 4 16.333 9.33301 27 16l26 16l21 12c15.333 8 26.333 12 33 12s12.834 -1.66699 18.501 -5s9.83398 -6.66602 12.501 -9.99902c11.333 -12 21 -23.167 29 -33.5s16.333 -20.5 25 -30.5l20 -23
c4.66699 -5.33301 9.83398 -11.666 15.501 -18.999s9.66699 -13.833 12 -19.5z" />
    <glyph glyph-name="Otilde" unicode="&#xd5;" horiz-adv-x="563" 
d="M365 860c15.333 0 28.8311 -3.83301 40.498 -11.5s20.5 -16.5 26.5 -26.5c16 -26 30.333 -40 43 -42c12 1.33301 25 12.833 39 34.5s27 32.5 39 32.5c16 0 23.833 -11 23.5 -33s-10.666 -44.667 -30.999 -68s-43.166 -35 -68.499 -35c-36 0 -72.333 28.667 -109 86
c-16 -7.33301 -32 -22.5 -48 -45.5s-29.167 -34.5 -39.5 -34.5s-18.333 2.5 -24 7.5s-8.16699 11.833 -7.5 20.5c0.666992 24.667 13.667 50 39 76s51 39 77 39zM424.998 530.5c-16.667 27.667 -35.333 41.502 -56 41.502s-44.167 -11.333 -70.5 -34s-51.5 -51 -75.5 -85
s-44.667 -73.833 -62 -119.5s-26 -87.334 -26 -125.001s6.66699 -66.5 20 -86.5s30 -30 50 -30c30 0 64.333 17.833 103 53.5s72 79.167 100 130.5s42 99.666 42 144.999s-8.33301 81.833 -25 109.5zM50.999 193.002c0 56.667 9.99902 113.498 29.999 170.498
s45.167 106.5 75.5 148.5s64 76.167 101 102.5s71.5 39.5 103.5 39.5c50 0 91.833 -23 125.5 -69s50.5 -98.167 50.5 -156.5s-15.333 -119.166 -46 -182.499s-72.667 -117.5 -126 -162.5s-108.666 -67.5 -165.999 -67.5c-40 0 -74.667 19.333 -104 58
s-44 78.334 -44 119.001z" />
    <glyph glyph-name="Odieresis" unicode="&#xd6;" horiz-adv-x="563" 
d="M425 530.5c-16.667 27.667 -35.333 41.502 -56 41.502s-44.167 -11.333 -70.5 -34s-51.5 -51 -75.5 -85s-44.667 -73.833 -62 -119.5s-26 -87.334 -26 -125.001s6.66699 -66.5 20 -86.5s30 -30 50 -30c30 0 64.333 17.833 103 53.5s72 79.167 100 130.5
s42 99.666 42 144.999s-8.33301 81.833 -25 109.5zM51.001 193.002c0 56.667 9.99902 113.498 29.999 170.498s45.167 106.5 75.5 148.5s64 76.167 101 102.5s71.5 39.5 103.5 39.5c50 0 91.833 -23 125.5 -69s50.5 -98.167 50.5 -156.5s-15.333 -119.166 -46 -182.499
s-72.667 -117.5 -126 -162.5s-108.666 -67.5 -165.999 -67.5c-40 0 -74.667 19.333 -104 58s-44 78.334 -44 119.001zM509 793.5c13.333 -25 20.002 -42.501 20.002 -52.501s-2.66699 -17.833 -8 -23.5s-10.666 -8.5 -15.999 -8.5c-14.667 0 -30.834 8.66699 -48.501 26
s-26.5 32.333 -26.5 45s4.66699 24.334 14 35.001s19.166 16 29.499 16s22.166 -12.5 35.499 -37.5zM361.502 793.499c13.667 -25 20.5 -42.5 20.5 -52.5s-2.83301 -17.833 -8.5 -23.5s-11.167 -8.5 -16.5 -8.5c-14 0 -29.833 8.83301 -47.5 26.5s-26.5 32.667 -26.5 45
s4.5 23.833 13.5 34.5s18.667 16 29 16s22.333 -12.5 36 -37.5z" />
    <glyph glyph-name="multiply" unicode="&#xd7;" horiz-adv-x="494" 
d="M504 506c0 -4 -9.16699 -14.6689 -27.5 -32.002l-81 -74.5l-87.5 -81.5l36.5 -45.5l35.5 -44.5l27 -36c18 -23.333 27 -38 27 -44s-2.33301 -11 -7 -15s-10 -6 -16 -6c-29.333 0 -81.333 46.333 -156 139l-56 -54.5c-12.667 -12.333 -27.667 -26.166 -45 -41.499
c-31.333 -28.667 -52.166 -43 -62.499 -43s-21 4.83301 -32 14.5s-16.5 17.834 -16.5 24.501s6.66699 15.834 20 27.501l64.5 55c29.667 25 57.167 49.833 82.5 74.5c-33.333 46 -61.666 88.5 -84.999 127.5s-35 63.333 -35 73s1 16 3 19s9.16699 4.5 21.5 4.5
s27.833 -3.5 46.5 -10.5s28 -15.833 28 -26.5c0 -22.667 24.667 -67 74 -133c68 72 109 114.167 123 126.5s25 21.5 33 27.5c15.333 11.333 27.666 17 36.999 17s19.666 -4.83301 30.999 -14.5s17 -18.834 17 -27.501z" />
    <glyph glyph-name="Oslash" unicode="&#xd8;" horiz-adv-x="574" 
d="M522 546c18.667 -37.333 28.001 -80.668 28.001 -130.001s-16 -105.833 -48 -169.5s-75.5 -118 -130.5 -163s-110.833 -67.5 -167.5 -67.5c-32.667 0 -63.334 14.333 -92.001 43c-24 -29.333 -40.167 -44 -48.5 -44s-14.833 2.83301 -19.5 8.5s-7 12.834 -7 21.501
s12.667 30 38 64c-16 28.667 -24 56.667 -24 84c0 56.667 10.333 113.667 31 171s46.334 106.833 77.001 148.5s64.667 75.667 102 102s72.333 39.5 105 39.5c43.333 0 81.666 -16.667 114.999 -50c34.667 36.667 60 55 76 55c6.66699 0 12.167 -2.16699 16.5 -6.5
s6.5 -9.83301 6.5 -16.5c0 -16.667 -14.333 -41 -43 -73zM130.001 196.998c0 -7.33301 0.332031 -12.6689 0.999023 -16.002l72 88.5l111.5 138.5c41.667 52.667 81.167 100.334 118.5 143.001c-16 20 -34.667 30 -56 30s-45.666 -12 -72.999 -36s-54 -54 -80 -90
s-48.167 -77.667 -66.5 -125s-27.5 -91.666 -27.5 -132.999zM466 424.995c0 21.333 -1.33301 39 -4 53l-307 -366c14 -17.333 30.333 -26 49 -26c31.333 0 68 19.167 110 57.5s77.833 84.5 107.5 138.5s44.5 101.667 44.5 143z" />
    <glyph glyph-name="Ugrave" unicode="&#xd9;" horiz-adv-x="543" 
d="M192 846c0 14 5.33301 26.333 16 37c18 19.333 35 20.666 51 3.99902l101 -106c10 -10 16.333 -20.333 19 -31s1.33398 -19.167 -3.99902 -25.5s-10.333 -10.166 -15 -11.499s-10.334 -0.333008 -17.001 3c-10.667 6.66699 -20 13 -28 19l-110 81
c-8.66699 6 -13 16 -13 30zM194 628c16 -17.333 24.001 -36.833 24.001 -58.5s-12.833 -77.834 -38.5 -168.501s-38.5 -153.334 -38.5 -188.001s5.66699 -62.167 17 -82.5s27.333 -30.5 48 -30.5c27.333 0 56.666 18.667 87.999 56s58.5 88.5 81.5 153.5
s34.5 131.5 34.5 199.5c0 34 -1.33301 61.833 -4 83.5s-4 34.834 -4 39.501c0 14.667 6.66699 22 20 22s30 -9.83301 50 -29.5s30.333 -41.167 31 -64.5c2 -93.333 -11 -182.166 -39 -266.499s-66 -151.833 -114 -202.5s-98.667 -76 -152 -76
c-40 0 -74.167 18.5 -102.5 55.5s-42.5 79.167 -42.5 126.5s13.167 121 39.5 221s39.5 168.667 39.5 206c0 20 7 30 21 30c11.333 0 25 -8.66699 41 -26z" />
    <glyph glyph-name="Uacute" unicode="&#xda;" horiz-adv-x="543" 
d="M194 628c16 -17.333 24.001 -36.833 24.001 -58.5s-12.833 -77.834 -38.5 -168.501s-38.5 -153.334 -38.5 -188.001s5.66699 -62.167 17 -82.5s27.333 -30.5 48 -30.5c27.333 0 56.666 18.667 87.999 56s58.5 88.5 81.5 153.5s34.5 131.5 34.5 199.5
c0 34 -1.33301 61.833 -4 83.5s-4 34.834 -4 39.501c0 14.667 6.66699 22 20 22s30 -9.83301 50 -29.5s30.333 -41.167 31 -64.5c2 -93.333 -11 -182.166 -39 -266.499s-66 -151.833 -114 -202.5s-98.667 -76 -152 -76c-40 0 -74.167 18.5 -102.5 55.5
s-42.5 79.167 -42.5 126.5s13.167 121 39.5 221s39.5 168.667 39.5 206c0 20 7 30 21 30c11.333 0 25 -8.66699 41 -26zM446.001 889c16 14.667 32 13.001 48 -4.99902c10 -12 14.833 -25 14.5 -39s-4.83301 -24 -13.5 -30c-80.667 -58.667 -122.334 -88.667 -125.001 -90
s-5.5 -2.83301 -8.5 -4.5s-5.5 -2.83398 -7.5 -3.50098s-4.33301 -1.5 -7 -2.5s-5 -1.33301 -7 -1s-4 0.5 -6 0.5c-3.33301 0.666992 -7.66602 3.66699 -12.999 9c-13.333 16 -8 35.333 16 58z" />
    <glyph glyph-name="Ucircumflex" unicode="&#xdb;" horiz-adv-x="543" 
d="M194 628c16 -17.333 24.001 -36.833 24.001 -58.5s-12.833 -77.834 -38.5 -168.501s-38.5 -153.334 -38.5 -188.001s5.66699 -62.167 17 -82.5s27.333 -30.5 48 -30.5c27.333 0 56.666 18.667 87.999 56s58.5 88.5 81.5 153.5s34.5 131.5 34.5 199.5
c0 34 -1.33301 61.833 -4 83.5s-4 34.834 -4 39.501c0 14.667 6.66699 22 20 22s30 -9.83301 50 -29.5s30.333 -41.167 31 -64.5c2 -93.333 -11 -182.166 -39 -266.499s-66 -151.833 -114 -202.5s-98.667 -76 -152 -76c-40 0 -74.167 18.5 -102.5 55.5
s-42.5 79.167 -42.5 126.5s13.167 121 39.5 221s39.5 168.667 39.5 206c0 20 7 30 21 30c11.333 0 25 -8.66699 41 -26zM486.501 727.5c2.33301 -5.66699 3.50098 -11.002 3.50098 -16.002s-2.5 -9.5 -7.5 -13.5s-10.167 -6 -15.5 -6s-10 0.666992 -14 2
s-8.16699 3.5 -12.5 6.5l-12 8.5c-3.66699 2.66699 -8 6.66699 -13 12l-12.5 13.5c-3.33301 3.66699 -7.66602 8.83398 -12.999 15.501l-12.5 15.5l-12.5 16l-12 15.5c-18.667 -10 -38.334 -23 -59.001 -39s-37.834 -28.833 -51.501 -38.5s-25 -14.5 -34 -14.5
s-16.333 2.66699 -22 8s-8.5 13.666 -8.5 24.999c0 24 23 48.667 69 74c7.33301 4 16.333 9.33301 27 16l26 16c6.66699 4 14 8 22 12c15.333 8 26.166 12 32.499 12s12.333 -1.66699 18 -5s10.167 -6.66602 13.5 -9.99902c10.667 -12 20 -23.167 28 -33.5
s16.333 -20.5 25 -30.5l20 -23c4.66699 -5.33301 9.83398 -11.666 15.501 -18.999s9.66699 -13.833 12 -19.5z" />
    <glyph glyph-name="Udieresis" unicode="&#xdc;" horiz-adv-x="543" 
d="M194 628c16 -17.333 24.001 -36.833 24.001 -58.5s-12.833 -77.834 -38.5 -168.501s-38.5 -153.334 -38.5 -188.001s5.66699 -62.167 17 -82.5s27.333 -30.5 48 -30.5c27.333 0 56.666 18.667 87.999 56s58.5 88.5 81.5 153.5s34.5 131.5 34.5 199.5
c0 34 -1.33301 61.833 -4 83.5s-4 34.834 -4 39.501c0 14.667 6.66699 22 20 22s30 -9.83301 50 -29.5s30.333 -41.167 31 -64.5c2 -93.333 -11 -182.166 -39 -266.499s-66 -151.833 -114 -202.5s-98.667 -76 -152 -76c-40 0 -74.167 18.5 -102.5 55.5
s-42.5 79.167 -42.5 126.5s13.167 121 39.5 221s39.5 168.667 39.5 206c0 20 7 30 21 30c11.333 0 25 -8.66699 41 -26zM446.001 793.5c13.333 -25 20.002 -42.501 20.002 -52.501s-2.66699 -17.833 -8 -23.5s-10.666 -8.5 -15.999 -8.5
c-14.667 0 -30.834 8.66699 -48.501 26s-26.5 32.333 -26.5 45s4.66699 24.334 14 35.001s19.166 16 29.499 16s22.166 -12.5 35.499 -37.5zM298.503 793.499c13.667 -25 20.5 -42.5 20.5 -52.5s-2.83301 -17.833 -8.5 -23.5s-11.167 -8.5 -16.5 -8.5
c-14.667 0 -30.667 8.83301 -48 26.5s-26 32.667 -26 45s4.5 23.833 13.5 34.5s18.667 16 29 16s22.333 -12.5 36 -37.5z" />
    <glyph glyph-name="Yacute" unicode="&#xdd;" horiz-adv-x="528" 
d="M423 889c16 14.667 32.001 13.001 48.001 -4.99902c10 -12 14.833 -25 14.5 -39s-4.83301 -24 -13.5 -30c-80.667 -58.667 -122.334 -88.667 -125.001 -90s-5.5 -2.83301 -8.5 -4.5s-5.5 -2.83398 -7.5 -3.50098s-4.33301 -1.5 -7 -2.5s-5 -1.33301 -7 -1
s-4.33301 0.5 -7 0.5c-2.66699 0.666992 -6.66699 3.66699 -12 9c-13.333 16 -8 35.333 16 58zM289.001 348.001c10 0 28.835 25.498 56.502 76.498l87 153c30.333 51 54.166 76.5 71.499 76.5c14 0 25.833 -5.16699 35.5 -15.5s14.5 -22.5 14.5 -36.5
s-11.167 -39.667 -33.5 -77s-53.5 -86.833 -93.5 -148.5s-71.667 -113.167 -95 -154.5c-54.667 -102 -89.334 -161.833 -104.001 -179.5s-27 -26.5 -37 -26.5c-16 0 -24 13 -24 39s30.333 96.333 91 211c-52 15.333 -95.833 52.333 -131.5 111s-57.5 126.334 -65.5 203.001
c-3.33301 49.333 10 74 40 74c11.333 0 20.333 -9.33301 27 -28s14.667 -45.667 24 -81s21 -67.666 35 -96.999s31 -53.333 51 -72s37 -28 51 -28z" />
    <glyph glyph-name="Thorn" unicode="&#xde;" horiz-adv-x="500" 
d="M290 516c38 0 74.501 -16.167 109.501 -48.5s52.5 -67.5 52.5 -105.5c0 -57.333 -31 -104.666 -93 -141.999s-131 -53.333 -207 -48c-27.333 -104.667 -46.666 -157 -57.999 -157c-8.66699 0 -17.834 6.66699 -27.501 20s-14.5 26.833 -14.5 40.5
s8.66699 54.167 26 121.5c53.333 202 80 344.333 80 427c0 11.333 1.33301 19.166 4 23.499s9 6.5 19 6.5s22.333 -8.16699 37 -24.5s22 -32.833 22 -49.5s-2.66699 -41 -8 -73c21.333 6 40.666 9 57.999 9zM377.001 360c0 22 -9.33301 40.167 -28 54.5
s-39.5 21.5 -62.5 21.5s-47.167 -6 -72.5 -18c-14.667 -66 -29.334 -125.333 -44.001 -178c48.667 -4 95.334 6.5 140.001 31.5s67 54.5 67 88.5z" />
    <glyph glyph-name="germandbls" unicode="&#xdf;" horiz-adv-x="583" 
d="M261 90l49.998 -2.00098c30.667 0 60 8.83301 88 26.5s42 40.834 42 69.501c0 29.333 -16.333 58.666 -49 87.999l-40 35c-33.333 27.333 -50 52.333 -50 75c0 8.66699 7 18 21 28s29.167 19.5 45.5 28.5s31.5 21 45.5 36s21 33.833 21 56.5s-9.66699 44.834 -29 66.501
s-40.666 32.5 -63.999 32.5s-45.166 -12.167 -65.499 -36.5s-34.833 -57.166 -43.5 -98.499c-64 -320 -111 -480 -141 -480c-9.33301 0 -18.5 5.5 -27.5 16.5s-13.5 23.167 -13.5 36.5s5 38.333 15 75c37.333 144 66.333 270.333 87 379
c11.333 59.333 34.333 105.333 69 138s79.334 49 134.001 49c42 0 79.667 -19.333 113 -58s50 -79.334 50 -122.001c0 -25.333 -6.66699 -48 -20 -68s-28 -34.333 -44 -43c-42.667 -24 -64 -40 -64 -48c0 -4 6.66699 -11.667 20 -23l44.5 -37
c16.333 -13.333 31.166 -31.5 44.499 -54.5s20 -46.833 20 -71.5c0 -50 -20 -90.333 -60 -121s-85.667 -46 -137 -46c-27.333 0 -48.833 5 -64.5 15s-23.5 22.167 -23.5 36.5s8.66699 21.5 26 21.5z" />
    <glyph glyph-name="agrave" unicode="&#xe0;" horiz-adv-x="518" 
d="M479 380c0 -20 -8.00098 -43.334 -24.001 -70.001c7.33301 -10 11 -19.167 11 -27.5s-4.66699 -28.833 -14 -61.5s-15.666 -58 -18.999 -76s-5.5 -33.667 -6.5 -47s-2 -24.333 -3 -33s-2.16699 -17 -3.5 -25c-2.66699 -16 -9.66699 -24 -21 -24
c-24 0 -37.667 38.667 -41 116c-28 -34 -58.833 -61.833 -92.5 -83.5s-65.167 -32.5 -94.5 -32.5s-57.333 12.833 -84 38.5s-40 52.834 -40 81.501c0 40.667 15.333 90.334 46 149.001s70.167 110.667 118.5 156s93.5 68 135.5 68c32 0 62 -13.833 90 -41.5
s42 -56.834 42 -87.501zM408.999 338.999c0 27.333 -4.66699 49.499 -14 66.499s-22.333 25.5 -39 25.5c-28 0 -60.667 -18.667 -98 -56s-69 -79.5 -95 -126.5s-39 -84.833 -39 -113.5c0 -12.667 4 -22.667 12 -30s18.333 -11.333 31 -12
c36.667 -1.33301 78 18.834 124 60.501s79.667 95.167 101 160.5c3.33301 10 9 16.333 17 19v6zM252.999 695.998c0 14 5.33301 26.333 16 37c18 19.333 35 20.666 51 3.99902l101 -106c10 -10 16.333 -20.333 19 -31s1.33398 -19.167 -3.99902 -25.5
s-10.333 -10.166 -15 -11.499s-10.334 -0.333008 -17.001 3c-10.667 6.66699 -20 13 -28 19l-110 81c-8.66699 6 -13 16 -13 30z" />
    <glyph glyph-name="aacute" unicode="&#xe1;" horiz-adv-x="518" 
d="M398 631l109.001 108.001c16 14.667 32 13 48 -5c10 -12 14.833 -25 14.5 -39s-4.83301 -24 -13.5 -30c-80.667 -58.667 -122.334 -88.667 -125.001 -90s-5.5 -2.83301 -8.5 -4.5s-5.5 -2.83398 -7.5 -3.50098s-4.33301 -1.5 -7 -2.5s-5 -1.33301 -7 -1
s-4.33301 0.5 -7 0.5c-2.66699 0.666992 -6.66699 3.66699 -12 9c-13.333 16 -8 35.333 16 58zM347.001 509.001c32 0 61.999 -13.834 89.999 -41.501s42 -56.834 42 -87.501c0 -20 -8 -43.333 -24 -70c7.33301 -10 11 -19.167 11 -27.5s-4.66699 -28.833 -14 -61.5
s-15.666 -58 -18.999 -76s-5.5 -33.667 -6.5 -47s-2 -24.333 -3 -33s-2.16699 -17 -3.5 -25c-2.66699 -16 -9.66699 -24 -21 -24c-24 0 -37.667 38.667 -41 116c-28 -34 -58.833 -61.833 -92.5 -83.5s-65.167 -32.5 -94.5 -32.5s-57.333 12.833 -84 38.5
s-40 52.834 -40 81.501c0 40.667 15.333 90.334 46 149.001s70.167 110.667 118.5 156s93.5 68 135.5 68zM409 339c0 27.333 -4.66699 49.499 -14 66.499s-22.333 25.5 -39 25.5c-28 0 -60.667 -18.667 -98 -56s-69 -79.5 -95 -126.5s-39 -84.833 -39 -113.5
c0 -12.667 4 -22.667 12 -30s18.333 -11.333 31 -12c36.667 -1.33301 78 18.834 124 60.501s79.667 95.167 101 160.5c3.33301 10 9 16.333 17 19v6z" />
    <glyph glyph-name="acircumflex" unicode="&#xe2;" horiz-adv-x="518" 
d="M547.5 577.5c2.33301 -5.66699 3.49902 -11.002 3.49902 -16.002s-2.5 -9.5 -7.5 -13.5s-10.167 -6 -15.5 -6s-10 0.666992 -14 2s-8.16699 3.5 -12.5 6.5l-12 8.5c-3.66699 2.66699 -8 6.66699 -13 12l-12.5 13.5c-3.33301 3.66699 -7.66602 8.83398 -12.999 15.501
l-12.5 15.5l-12.5 16l-12 15.5c-18.667 -10 -38.334 -23 -59.001 -39s-37.834 -28.833 -51.501 -38.5s-25 -14.5 -34 -14.5s-16.333 2.66699 -22 8s-8.5 13.666 -8.5 24.999c0 24 23 48.667 69 74c7.33301 4 16.333 9.33301 27 16l26 16l21 12c16 8 27.167 12 33.5 12
s12.333 -1.66699 18 -5s9.83398 -6.66602 12.501 -9.99902c11.333 -12 21 -23.167 29 -33.5s16.333 -20.5 25 -30.5l20 -23c4.66699 -5.33301 9.83398 -11.666 15.501 -18.999s9.66699 -13.833 12 -19.5zM346.999 508.998c32 0 61.999 -13.834 89.999 -41.501
s42 -56.834 42 -87.501c0 -20 -8 -43.333 -24 -70c7.33301 -10 11 -19.167 11 -27.5s-4.66699 -28.833 -14 -61.5s-15.666 -58 -18.999 -76s-5.5 -33.667 -6.5 -47s-2 -24.333 -3 -33s-2.16699 -17 -3.5 -25c-2.66699 -16 -9.66699 -24 -21 -24
c-24 0 -37.667 38.667 -41 116c-28 -34 -58.833 -61.833 -92.5 -83.5s-65.167 -32.5 -94.5 -32.5s-57.333 12.833 -84 38.5s-40 52.834 -40 81.501c0 40.667 15.333 90.334 46 149.001s70.167 110.667 118.5 156s93.5 68 135.5 68zM408.998 338.997
c0 27.333 -4.66699 49.499 -14 66.499s-22.333 25.5 -39 25.5c-28 0 -60.667 -18.667 -98 -56s-69 -79.5 -95 -126.5s-39 -84.833 -39 -113.5c0 -12.667 4 -22.667 12 -30s18.333 -11.333 31 -12c36.667 -1.33301 78 18.834 124 60.501s79.667 95.167 101 160.5
c3.33301 10 9 16.333 17 19v6z" />
    <glyph glyph-name="atilde" unicode="&#xe3;" horiz-adv-x="518" 
d="M551 697c16 0 23.8311 -11 23.498 -33s-10.666 -44.667 -30.999 -68s-43.166 -35 -68.499 -35c-36 0 -72.333 28.667 -109 86c-16 -7.33301 -32 -22.5 -48 -45.5s-29.167 -34.5 -39.5 -34.5s-18.333 2.5 -24 7.5s-8.16699 11.833 -7.5 20.5
c0.666992 24.667 13.667 50 39 76s51 39 77 39c15.333 0 28.833 -3.83301 40.5 -11.5s20.5 -16.5 26.5 -26.5c16 -26 30.333 -40 43 -42c12 1.33301 25 12.833 39 34.5s27 32.5 39 32.5zM346.998 509c32 0 61.999 -13.834 89.999 -41.501s42 -56.834 42 -87.501
c0 -20 -8 -43.333 -24 -70c7.33301 -10 11 -19.167 11 -27.5s-4.66699 -28.833 -14 -61.5s-15.666 -58 -18.999 -76s-5.5 -33.667 -6.5 -47s-2 -24.333 -3 -33s-2.16699 -17 -3.5 -25c-2.66699 -16 -9.66699 -24 -21 -24c-24 0 -37.667 38.667 -41 116
c-28 -34 -58.833 -61.833 -92.5 -83.5s-65.167 -32.5 -94.5 -32.5s-57.333 12.833 -84 38.5s-40 52.834 -40 81.501c0 40.667 15.333 90.334 46 149.001s70.167 110.667 118.5 156s93.5 68 135.5 68zM408.997 338.999c0 27.333 -4.66699 49.499 -14 66.499
s-22.333 25.5 -39 25.5c-28 0 -60.667 -18.667 -98 -56s-69 -79.5 -95 -126.5s-39 -84.833 -39 -113.5c0 -12.667 4 -22.667 12 -30s18.333 -11.333 31 -12c36.667 -1.33301 78 18.834 124 60.501s79.667 95.167 101 160.5c3.33301 10 9 16.333 17 19v6z" />
    <glyph glyph-name="adieresis" unicode="&#xe4;" horiz-adv-x="518" 
d="M442 665c9.33301 10.667 19.168 15.999 29.501 15.999s22.166 -12.5 35.499 -37.5s20 -42.5 20 -52.5s-2.66699 -17.833 -8 -23.5s-10.666 -8.5 -15.999 -8.5c-14.667 0 -30.834 8.66699 -48.501 26s-26.5 32.333 -26.5 45s4.66699 24.334 14 35.001zM347.002 508.999
c32 0 61.999 -13.834 89.999 -41.501s42 -56.834 42 -87.501c0 -20 -8 -43.333 -24 -70c7.33301 -10 11 -19.167 11 -27.5s-4.66699 -28.833 -14 -61.5s-15.666 -58 -18.999 -76s-5.5 -33.667 -6.5 -47s-2 -24.333 -3 -33s-2.16699 -17 -3.5 -25
c-2.66699 -16 -9.66699 -24 -21 -24c-24 0 -37.667 38.667 -41 116c-28 -34 -58.833 -61.833 -92.5 -83.5s-65.167 -32.5 -94.5 -32.5s-57.333 12.833 -84 38.5s-40 52.834 -40 81.501c0 40.667 15.333 90.334 46 149.001s70.167 110.667 118.5 156s93.5 68 135.5 68z
M409.001 338.998c0 27.333 -4.66699 49.499 -14 66.499s-22.333 25.5 -39 25.5c-28 0 -60.667 -18.667 -98 -56s-69 -79.5 -95 -126.5s-39 -84.833 -39 -113.5c0 -12.667 4 -22.667 12 -30s18.333 -11.333 31 -12c36.667 -1.33301 78 18.834 124 60.501
s79.667 95.167 101 160.5c3.33301 10 9 16.333 17 19v6zM355.001 558.997c-14 0 -29.833 8.83301 -47.5 26.5s-26.5 32.667 -26.5 45s4.5 23.833 13.5 34.5s18.667 16 29 16s22.333 -12.5 36 -37.5s20.5 -42.5 20.5 -52.5s-2.83301 -17.833 -8.5 -23.5
s-11.167 -8.5 -16.5 -8.5z" />
    <glyph glyph-name="aring" unicode="&#xe5;" horiz-adv-x="518" 
d="M365.5 714.5c18.333 19 39.334 28.5 63.001 28.5s43 -9.5 58 -28.5s20.833 -41.5 17.5 -67.5s-14.333 -48.5 -33 -67.5s-39.667 -28.5 -63 -28.5s-42.5 9.5 -57.5 28.5s-20.833 41.5 -17.5 67.5s14.166 48.5 32.499 67.5zM422.001 689
c-8.66699 0 -16.165 -4.33301 -22.498 -13s-10.333 -18.834 -12 -30.501s0.166016 -21.834 5.49902 -30.501s12.166 -13 20.499 -13s16 4.33301 23 13s11 18.834 12 30.501s-1 21.834 -6 30.501s-11.833 13 -20.5 13zM347.003 509c32 0 61.999 -13.834 89.999 -41.501
s42 -56.834 42 -87.501c0 -20 -8 -43.333 -24 -70c7.33301 -10 11 -19.167 11 -27.5s-4.66699 -28.833 -14 -61.5s-15.666 -58 -18.999 -76s-5.5 -33.667 -6.5 -47s-2 -24.333 -3 -33s-2.16699 -17 -3.5 -25c-2.66699 -16 -9.66699 -24 -21 -24
c-24 0 -37.667 38.667 -41 116c-28 -34 -58.833 -61.833 -92.5 -83.5s-65.167 -32.5 -94.5 -32.5s-57.333 12.833 -84 38.5s-40 52.834 -40 81.501c0 40.667 15.333 90.334 46 149.001s70.167 110.667 118.5 156s93.5 68 135.5 68zM409.002 338.999
c0 27.333 -4.66699 49.499 -14 66.499s-22.333 25.5 -39 25.5c-28 0 -60.667 -18.667 -98 -56s-69 -79.5 -95 -126.5s-39 -84.833 -39 -113.5c0 -12.667 4 -22.667 12 -30s18.333 -11.333 31 -12c36.667 -1.33301 78 18.834 124 60.501s79.667 95.167 101 160.5
c3.33301 10 9 16.333 17 19v6z" />
    <glyph glyph-name="ae" unicode="&#xe6;" horiz-adv-x="766" 
d="M392 344c-1.33301 58 -17.002 87.002 -47.002 87.002s-62.667 -18.667 -98 -56s-64.666 -79.5 -87.999 -126.5s-35 -84.333 -35 -112s10.667 -42.167 32 -43.5c32.667 -1.33301 68.834 15.667 108.501 51s73.5 82.666 101.5 141.999c6 19.333 14.667 38.666 26 57.999z
M454.998 297.002c28.667 -6.66699 60.832 -10.002 96.499 -10.002s65.834 5.5 90.501 16.5s37 25.833 37 44.5s-8.5 37.834 -25.5 57.501s-33.5 29.5 -49.5 29.5c-26 0 -52.5 -13.167 -79.5 -39.5s-50.167 -59.166 -69.5 -98.499zM335.996 509
c24 0 46.167 -8.16895 66.5 -24.502s35.5 -36.5 45.5 -60.5c49.333 56.667 99.333 85 150 85c39.333 0 74.833 -18.5 106.5 -55.5s47.5 -73.167 47.5 -108.5s-19 -64 -57 -86s-80 -33 -126 -33s-91.667 5.66699 -137 17c-9.33301 -29.333 -14 -56.166 -14 -80.499
s7.66699 -43.166 23 -56.499s39.333 -20 72 -20s66.334 6 101.001 18s54 18 58 18c16 0 24 -6.33301 24 -19c0 -17.333 -20 -36.166 -60 -56.499s-80.5 -30.5 -121.5 -30.5s-77 11.833 -108 35.5s-49.833 54.834 -56.5 93.501
c-27.333 -38.667 -57.833 -69.834 -91.5 -93.501s-65.334 -35.5 -95.001 -35.5s-56.5 12.5 -80.5 37.5s-36 55.333 -36 91s14 82.667 42 141s65.167 110.166 111.5 155.499s91.5 68 135.5 68z" />
    <glyph glyph-name="ccedilla" unicode="&#xe7;" horiz-adv-x="455" 
d="M209 16l-5.99902 0.000976562c-6.66699 -16 -15.334 -33 -26.001 -51c24 2.66699 48.667 -4.33301 74 -21c15.333 -10 23.333 -21.333 24 -34c0.666992 -22.667 -14.5 -43.5 -45.5 -62.5s-72.167 -29.833 -123.5 -32.5c-38 -1.33301 -57 6 -57 22
c0 7.33301 9.33301 13 28 17s40.167 9.16699 64.5 15.5s41.166 15.5 50.499 27.5c-4.66699 7.33301 -17.334 13.333 -38.001 18s-35 10 -43 16c-7.33301 2.66699 -5.66602 15 5.00098 37c15.333 32 24.666 53 27.999 63c-27.333 12.667 -49.833 31 -67.5 55
s-26.5 49.667 -26.5 77c0 45.333 13.833 95 41.5 149s63.667 100.333 108 139s87.166 58 128.499 58c28 0 52 -11.833 72 -35.5s30 -43.167 30 -58.5s-5.33301 -23 -16 -23c-7.33301 0 -19.166 6.33301 -35.499 19s-31.166 19 -44.499 19
c-36.667 0 -79.334 -32.333 -128.001 -97s-73 -121 -73 -169c0 -21.333 6.83301 -38.5 20.5 -51.5s33 -19.5 58 -19.5s48.167 2.16699 69.5 6.5s37.333 9.16602 48 14.499c26.667 14.667 45.834 22 57.501 22s17.5 -6 17.5 -18c0 -18 -23.167 -39.5 -69.5 -64.5
s-88.166 -37.5 -125.499 -37.5z" />
    <glyph glyph-name="egrave" unicode="&#xe8;" horiz-adv-x="454" 
d="M384 259c-38 -22 -80.3311 -33.0029 -126.998 -33.0029s-92 5.66699 -136 17c-9.33301 -29.333 -14 -56.166 -14 -80.499s7.66699 -43.166 23 -56.499s39.166 -20 71.499 -20s65.833 6 100.5 18s54 18 58 18c16.667 0 25 -6.33301 25 -19
c0 -17.333 -20.167 -36.166 -60.5 -56.499s-79.5 -30.5 -117.5 -30.5c-50.667 0 -92.334 15.333 -125.001 46s-49 69.5 -49 116.5s12.5 96.333 37.5 148s57.5 95 97.5 130s79.5 52.5 118.5 52.5s74.5 -18.5 106.5 -55.5s48 -73.167 48 -108.5s-19 -64 -57 -86z
M292.002 434.997c-26 0 -52.665 -13.334 -79.998 -40.001s-50.333 -59.667 -69 -99c29.333 -6 61.666 -9 96.999 -9s65.333 5.5 90 16.5s37 25.833 37 44.5s-8.33301 37.834 -25 57.501s-33.334 29.5 -50.001 29.5zM157.004 695.996c0 14 5.33301 26.333 16 37
c18 19.333 35 20.666 51 3.99902l101 -106c10 -10 16.333 -20.333 19 -31s1.33398 -19.167 -3.99902 -25.5s-10.333 -10.166 -15 -11.499s-10.334 -0.333008 -17.001 3c-10.667 6.66699 -20 13 -28 19l-110 81c-8.66699 6 -13 16 -13 30z" />
    <glyph glyph-name="eacute" unicode="&#xe9;" horiz-adv-x="454" 
d="M302 631l109.001 108.001c16 14.667 32 13 48 -5c10 -12 14.833 -25 14.5 -39s-4.83301 -24 -13.5 -30c-80.667 -58.667 -122.334 -88.667 -125.001 -90s-5.5 -2.83301 -8.5 -4.5s-5.5 -2.83398 -7.5 -3.50098s-4.33301 -1.5 -7 -2.5s-5 -1.33301 -7 -1
s-4.33301 0.5 -7 0.5c-2.66699 0.666992 -6.66699 3.66699 -12 9c-13.333 16 -8 35.333 16 58zM168.001 456.501c40 35 79.502 52.4971 118.502 52.4971s74.5 -18.5 106.5 -55.5s48 -73.167 48 -108.5s-19 -64 -57 -86s-80.333 -33 -127 -33s-92 5.66699 -136 17
c-9.33301 -29.333 -14 -56.166 -14 -80.499s7.66699 -43.166 23 -56.499s39.166 -20 71.499 -20s65.833 6 100.5 18s54 18 58 18c16.667 0 25 -6.33301 25 -19c0 -17.333 -20.167 -36.166 -60.5 -56.499s-79.5 -30.5 -117.5 -30.5c-50.667 0 -92.334 15.333 -125.001 46
s-49 69.5 -49 116.5s12.5 96.333 37.5 148s57.5 95 97.5 130zM143.003 295.998c29.333 -6 61.668 -9.00098 97.001 -9.00098s65.333 5.5 90 16.5s37 25.833 37 44.5s-8.33301 37.834 -25 57.501s-33.334 29.5 -50.001 29.5c-26 0 -52.667 -13.333 -80 -40
s-50.333 -59.667 -69 -99z" />
    <glyph glyph-name="ecircumflex" unicode="&#xea;" horiz-adv-x="454" 
d="M451.5 577.5c2.33301 -5.66699 3.49902 -11.002 3.49902 -16.002s-2.5 -9.5 -7.5 -13.5s-10.167 -6 -15.5 -6s-10 0.666992 -14 2s-8.16699 3.5 -12.5 6.5l-12 8.5c-3.66699 2.66699 -8 6.66699 -13 12l-12.5 13.5c-3.33301 3.66699 -7.66602 8.83398 -12.999 15.501
l-12.5 15.5l-12.5 16l-12 15.5c-18.667 -10 -38.334 -23 -59.001 -39s-37.834 -28.833 -51.501 -38.5s-25 -14.5 -34 -14.5s-16.333 2.66699 -22 8s-8.5 13.666 -8.5 24.999c0 24 23 48.667 69 74c7.33301 4 16.333 9.33301 27 16l26 16l21 12c16 8 27.167 12 33.5 12
s12.333 -1.66699 18 -5s9.83398 -6.66602 12.501 -9.99902c11.333 -12 21 -23.167 29 -33.5s16.333 -20.5 25 -30.5l20 -23c4.66699 -5.33301 9.83398 -11.666 15.501 -18.999s9.66699 -13.833 12 -19.5zM167.999 456.498c40 35 79.502 52.4971 118.502 52.4971
s74.5 -18.5 106.5 -55.5s48 -73.167 48 -108.5s-19 -64 -57 -86s-80.333 -33 -127 -33s-92 5.66699 -136 17c-9.33301 -29.333 -14 -56.166 -14 -80.499s7.66699 -43.166 23 -56.499s39.166 -20 71.499 -20s65.833 6 100.5 18s54 18 58 18c16.667 0 25 -6.33301 25 -19
c0 -17.333 -20.167 -36.166 -60.5 -56.499s-79.5 -30.5 -117.5 -30.5c-50.667 0 -92.334 15.333 -125.001 46s-49 69.5 -49 116.5s12.5 96.333 37.5 148s57.5 95 97.5 130zM143.001 295.995c29.333 -6 61.668 -9.00098 97.001 -9.00098s65.333 5.5 90 16.5
s37 25.833 37 44.5s-8.33301 37.834 -25 57.501s-33.334 29.5 -50.001 29.5c-26 0 -52.667 -13.333 -80 -40s-50.333 -59.667 -69 -99z" />
    <glyph glyph-name="edieresis" unicode="&#xeb;" horiz-adv-x="454" 
d="M384 259c-38 -22 -80.3311 -33.0029 -126.998 -33.0029s-92 5.66699 -136 17c-9.33301 -29.333 -14 -56.166 -14 -80.499s7.66699 -43.166 23 -56.499s39.166 -20 71.499 -20s65.833 6 100.5 18s54 18 58 18c16.667 0 25 -6.33301 25 -19
c0 -17.333 -20.167 -36.166 -60.5 -56.499s-79.5 -30.5 -117.5 -30.5c-50.667 0 -92.334 15.333 -125.001 46s-49 69.5 -49 116.5s12.5 96.333 37.5 148s57.5 95 97.5 130s79.5 52.5 118.5 52.5s74.5 -18.5 106.5 -55.5s48 -73.167 48 -108.5s-19 -64 -57 -86z
M292.002 434.997c-26 0 -52.665 -13.334 -79.998 -40.001s-50.333 -59.667 -69 -99c29.333 -6 61.666 -9 96.999 -9s65.333 5.5 90 16.5s37 25.833 37 44.5s-8.33301 37.834 -25 57.501s-33.334 29.5 -50.001 29.5zM259.004 558.996c-14 0 -29.833 8.83301 -47.5 26.5
s-26.5 32.667 -26.5 45s4.5 23.833 13.5 34.5s18.667 16 29 16s22.333 -12.5 36 -37.5s20.5 -42.5 20.5 -52.5s-2.83301 -17.833 -8.5 -23.5s-11.167 -8.5 -16.5 -8.5zM407.004 558.996c-14.667 0 -30.832 8.66602 -48.499 25.999s-26.5 32.333 -26.5 45
s4.66699 24.334 14 35.001s19.166 16 29.499 16s22.166 -12.5 35.499 -37.5s20 -42.5 20 -52.5s-2.66699 -17.833 -8 -23.5s-10.666 -8.5 -15.999 -8.5z" />
    <glyph glyph-name="igrave" unicode="&#xec;" horiz-adv-x="260" 
d="M53 696c0 14 5.33301 26.333 16 37c18 19.333 35 20.666 51 3.99902l101 -106c10 -10 16.333 -20.333 19 -31s1.33398 -19.167 -3.99902 -25.5s-10.333 -10.166 -15 -11.499s-10.334 -0.333008 -17.001 3c-10.667 6.66699 -20 13 -28 19l-110 81
c-8.66699 6 -13 16 -13 30zM211 448c0 -40 -34.001 -167 -102.001 -381c-11.333 -34 -26 -51 -44 -51c-8.66699 0 -16.167 4.83301 -22.5 14.5s-8.5 20.5 -6.5 32.5c4.66699 20.667 13.334 54.667 26.001 102s28 109 46 185s28.667 118.667 32 128
c6.66699 20.667 14.334 31 23.001 31c11.333 0 22.166 -6.83301 32.499 -20.5s15.5 -27.167 15.5 -40.5z" />
    <glyph glyph-name="iacute" unicode="&#xed;" horiz-adv-x="260" 
d="M211 448c0 -40 -34.001 -167 -102.001 -381c-11.333 -34 -26 -51 -44 -51c-8.66699 0 -16.167 4.83301 -22.5 14.5s-8.5 20.5 -6.5 32.5c4.66699 20.667 13.334 54.667 26.001 102s28 109 46 185s28.667 118.667 32 128c6.66699 20.667 14.334 31 23.001 31
c11.333 0 22.166 -6.83301 32.499 -20.5s15.5 -27.167 15.5 -40.5zM306.999 739c16 14.667 32.001 13.001 48.001 -4.99902c10 -12 14.833 -25 14.5 -39s-4.83301 -24 -13.5 -30c-80.667 -58.667 -122.334 -88.667 -125.001 -90s-5.5 -2.83301 -8.5 -4.5
s-5.5 -2.83398 -7.5 -3.50098s-4.33301 -1.5 -7 -2.5s-5 -1.33301 -7 -1s-4.33301 0.5 -7 0.5c-2.66699 0.666992 -6.66699 3.66699 -12 9c-13.333 16 -8 35.333 16 58z" />
    <glyph glyph-name="icircumflex" unicode="&#xee;" horiz-adv-x="260" 
d="M211 448c0 -40 -34.001 -167 -102.001 -381c-11.333 -34 -26 -51 -44 -51c-8.66699 0 -16.167 4.83301 -22.5 14.5s-8.5 20.5 -6.5 32.5c4.66699 20.667 13.334 54.667 26.001 102s28 109 46 185s28.667 118.667 32 128c6.66699 20.667 14.334 31 23.001 31
c11.333 0 22.166 -6.83301 32.499 -20.5s15.5 -27.167 15.5 -40.5zM347.499 577.5c2.33301 -5.66699 3.49902 -11.002 3.49902 -16.002s-2.5 -9.5 -7.5 -13.5s-10.167 -6 -15.5 -6s-10 0.666992 -14 2s-8.16699 3.5 -12.5 6.5l-12 8.5c-3.66699 2.66699 -8 6.66699 -13 12
l-12.5 13.5c-3.33301 3.66699 -7.66602 8.83398 -12.999 15.501l-12.5 15.5l-12.5 16l-12 15.5c-18.667 -10 -38.334 -23 -59.001 -39s-37.834 -28.833 -51.501 -38.5s-25 -14.5 -34 -14.5s-16.333 2.66699 -22 8s-8.5 13.666 -8.5 24.999c0 24 23 48.667 69 74
c7.33301 4 16.333 9.33301 27 16l26 16l21 12c16 8 27.167 12 33.5 12s12.333 -1.66699 18 -5s9.83398 -6.66602 12.501 -9.99902c11.333 -12 21 -23.167 29 -33.5s16.333 -20.5 25 -30.5l20 -23c4.66699 -5.33301 9.83398 -11.666 15.501 -18.999s9.66699 -13.833 12 -19.5
z" />
    <glyph glyph-name="idieresis" unicode="&#xef;" horiz-adv-x="260" 
d="M211 448c0 -40 -34.001 -167 -102.001 -381c-11.333 -34 -26 -51 -44 -51c-8.66699 0 -16.167 4.83301 -22.5 14.5s-8.5 20.5 -6.5 32.5c4.66699 20.667 13.334 54.667 26.001 102s28 109 46 185s28.667 118.667 32 128c6.66699 20.667 14.334 31 23.001 31
c11.333 0 22.166 -6.83301 32.499 -20.5s15.5 -27.167 15.5 -40.5zM306.999 643.5c13.333 -25 20.002 -42.501 20.002 -52.501s-2.66699 -17.833 -8 -23.5s-10.666 -8.5 -15.999 -8.5c-14.667 0 -30.834 8.66699 -48.501 26s-26.5 32.333 -26.5 45s4.66699 24.334 14 35.001
s19.166 16 29.499 16s22.166 -12.5 35.499 -37.5zM159.501 643.499c13.667 -25 20.5 -42.5 20.5 -52.5s-2.83301 -17.833 -8.5 -23.5s-11.167 -8.5 -16.5 -8.5c-14 0 -29.833 8.83301 -47.5 26.5s-26.5 32.667 -26.5 45s4.5 23.833 13.5 34.5s18.667 16 29 16
s22.333 -12.5 36 -37.5z" />
    <glyph glyph-name="eth" unicode="&#xf0;" horiz-adv-x="452" 
d="M286 591c-23.333 35.333 -46.3311 53.0029 -68.998 53.0029c-5.33301 0 -13.5 -2.5 -24.5 -7.5s-19.5 -7.5 -25.5 -7.5c-10.667 0 -16 7.16699 -16 21.5s8 28 24 41s32.667 19.5 50 19.5c49.333 0 93.666 -30.667 132.999 -92c51.333 20.667 80.666 31 87.999 31
c15.333 0 23 -5 23 -15c0 -12 -29 -32 -87 -60c25.333 -54.667 38 -113.334 38 -176.001s-11.833 -123.334 -35.5 -182.001s-56.167 -106.834 -97.5 -144.501s-85.333 -56.5 -132 -56.5c-34 0 -62.667 14.667 -86 44s-35 68 -35 116c0 78.667 22.167 146.834 66.5 204.501
s97.5 86.5 159.5 86.5c26.667 0 51.667 -11.667 75 -35c-2.66699 40 -11 77.667 -25 113c-55.333 -22 -91 -33 -107 -33s-24 5.66699 -24 17c0 10.667 10.667 21 32 31c18.667 9.33301 43.667 19.666 75 30.999zM161.002 83.0029c38 0 75.5 30.833 112.5 92.5
s57.833 125.5 62.5 191.5c-20.667 25.333 -41 38 -61 38c-38.667 0 -74.834 -22.667 -108.501 -68s-50.5 -102.333 -50.5 -171c0 -20.667 4.33301 -39.667 13 -57s19.334 -26 32.001 -26z" />
    <glyph glyph-name="ntilde" unicode="&#xf1;" horiz-adv-x="529" 
d="M388 509c22 0 44.1689 -13.501 66.502 -40.501s33.5 -55.5 33.5 -85.5c0 -47.333 -11 -105 -33 -173c-41.333 -129.333 -77 -194 -107 -194c-14 0 -21 9 -21 27c0 14.667 7.66699 43.667 23 87c40 115.333 60 193.666 60 234.999c0 14.667 -3.16699 27.167 -9.5 37.5
s-12.833 15.5 -19.5 15.5s-13.5 -2 -20.5 -6s-14.667 -10.5 -23 -19.5s-16.333 -18.167 -24 -27.5s-17 -22.333 -28 -39l-28.5 -44l-100.5 -156.5l-46.5 -73.5c-17.333 -24 -30.333 -36 -39 -36s-19.167 7.16699 -31.5 21.5s-17.333 27.333 -15 39s9 34.834 20 69.501
s19.167 62.334 24.5 83.001c17.333 64.667 27.333 136.667 30 216c1.33301 24 3.16602 41.167 5.49902 51.5s7.16602 15.5 14.499 15.5c13.333 0 26.833 -7.33301 40.5 -22s20.5 -31.667 20.5 -51s-5.33301 -55 -16 -107s-24.667 -103 -42 -153c65.333 112 119 195 161 249
s77 81 105 81zM231.002 601.499c-16 -23 -29.1689 -34.5 -39.502 -34.5s-18.333 2.5 -24 7.5s-8.16699 11.833 -7.5 20.5c0.666992 24.667 13.667 50 39 76s51 39 77 39c15.333 0 28.833 -3.83301 40.5 -11.5s20.5 -16.5 26.5 -26.5c16 -26 30.333 -40 43 -42
c12 1.33301 25 12.833 39 34.5s27 32.5 39 32.5c16 0 23.833 -11 23.5 -33s-10.666 -44.667 -30.999 -68s-43.166 -35 -68.499 -35c-36 0 -72.333 28.667 -109 86c-16 -7.33301 -32 -22.5 -48 -45.5z" />
    <glyph glyph-name="ograve" unicode="&#xf2;" horiz-adv-x="452" 
d="M166 696c0 14 5.33301 26.333 16 37c18 19.333 35 20.666 51 3.99902l101 -106c10 -10 16.333 -20.333 19 -31s1.33398 -19.167 -3.99902 -25.5s-10.333 -10.166 -15 -11.499s-10.334 -0.333008 -17.001 3c-10.667 6.66699 -20 13 -28 19l-110 81
c-8.66699 6 -13 16 -13 30zM169 345c-33.333 -58.667 -50 -114.502 -50 -167.502s13 -85.5 39 -97.5c50 8.66699 92.333 41.334 127 98.001s52 111 52 163c0 23.333 -4 45.333 -12 66s-19.333 35.334 -34 44.001c-48 -12 -88.667 -47.333 -122 -106zM416 341.998
c0 -80.667 -26.1699 -155.168 -78.5029 -223.501s-113.166 -102.5 -182.499 -102.5c-34 0 -62 15.333 -84 46s-33 70.167 -33 118.5s11.333 98.333 34 150s52.834 94.334 90.501 128.001s76.334 50.5 116.001 50.5s72.5 -16.833 98.5 -50.5s39 -72.5 39 -116.5z" />
    <glyph glyph-name="oacute" unicode="&#xf3;" horiz-adv-x="452" 
d="M169 345c-33.333 -58.667 -50 -114.502 -50 -167.502s13 -85.5 39 -97.5c50 8.66699 92.333 41.334 127 98.001s52 111 52 163c0 23.333 -4 45.333 -12 66s-19.333 35.334 -34 44.001c-48 -12 -88.667 -47.333 -122 -106zM416 341.998
c0 -80.667 -26.1699 -155.168 -78.5029 -223.501s-113.166 -102.5 -182.499 -102.5c-34 0 -62 15.333 -84 46s-33 70.167 -33 118.5s11.333 98.333 34 150s52.834 94.334 90.501 128.001s76.334 50.5 116.001 50.5s72.5 -16.833 98.5 -50.5s39 -72.5 39 -116.5z
M419.997 738.997c16 14.667 32 13.001 48 -4.99902c10 -12 14.833 -25 14.5 -39s-4.83301 -24 -13.5 -30c-80.667 -58.667 -122.334 -88.667 -125.001 -90s-5.5 -2.83301 -8.5 -4.5s-5.5 -2.83398 -7.5 -3.50098s-4.33301 -1.5 -7 -2.5s-5 -1.33301 -7 -1s-4 0.5 -6 0.5
c-3.33301 0.666992 -7.66602 3.66699 -12.999 9c-13.333 16 -8 35.333 16 58z" />
    <glyph glyph-name="ocircumflex" unicode="&#xf4;" horiz-adv-x="452" 
d="M169 345c-33.333 -58.667 -50 -114.502 -50 -167.502s13 -85.5 39 -97.5c50 8.66699 92.333 41.334 127 98.001s52 111 52 163c0 23.333 -4 45.333 -12 66s-19.333 35.334 -34 44.001c-48 -12 -88.667 -47.333 -122 -106zM416 341.998
c0 -80.667 -26.1699 -155.168 -78.5029 -223.501s-113.166 -102.5 -182.499 -102.5c-34 0 -62 15.333 -84 46s-33 70.167 -33 118.5s11.333 98.333 34 150s52.834 94.334 90.501 128.001s76.334 50.5 116.001 50.5s72.5 -16.833 98.5 -50.5s39 -72.5 39 -116.5z
M460.497 577.497c2.33301 -5.66699 3.49805 -11.002 3.49805 -16.002s-2.5 -9.5 -7.5 -13.5s-10.167 -6 -15.5 -6s-10 0.666992 -14 2s-8.16699 3.5 -12.5 6.5l-12 8.5c-3.66699 2.66699 -8 6.66699 -13 12l-12.5 13.5c-3.33301 3.66699 -7.66602 8.83398 -12.999 15.501
l-12.5 15.5l-12.5 16l-12 15.5c-18.667 -10 -38.334 -23 -59.001 -39s-37.834 -28.833 -51.501 -38.5s-25 -14.5 -34 -14.5s-16.333 2.66699 -22 8s-8.5 13.666 -8.5 24.999c0 24 23 48.667 69 74c7.33301 4 16.333 9.33301 27 16l26 16c6.66699 4 14 8 22 12
c14.667 8 25.334 12 32.001 12s12.834 -1.66699 18.501 -5s10.167 -6.66602 13.5 -9.99902c10.667 -12 20 -23.167 28 -33.5s16.333 -20.5 25 -30.5l20 -23c4.66699 -5.33301 9.83398 -11.666 15.501 -18.999s9.66699 -13.833 12 -19.5z" />
    <glyph glyph-name="otilde" unicode="&#xf5;" horiz-adv-x="452" 
d="M276 710c15.333 0 28.8311 -3.83301 40.498 -11.5s20.5 -16.5 26.5 -26.5c16 -26 30.333 -40 43 -42c12 1.33301 25 12.833 39 34.5s27 32.5 39 32.5c16 0 23.833 -11 23.5 -33s-10.666 -44.667 -30.999 -68s-43.166 -35 -68.499 -35c-36 0 -72.333 28.667 -109 86
c-16 -7.33301 -32 -22.5 -48 -45.5s-29.167 -34.5 -39.5 -34.5s-18.333 2.5 -24 7.5s-8.16699 11.833 -7.5 20.5c0.666992 24.667 13.667 50 39 76s51 39 77 39zM168.998 345c-33.333 -58.667 -50 -114.502 -50 -167.502s13 -85.5 39 -97.5
c50 8.66699 92.333 41.334 127 98.001s52 111 52 163c0 23.333 -4 45.333 -12 66s-19.333 35.334 -34 44.001c-48 -12 -88.667 -47.333 -122 -106zM415.998 341.998c0 -80.667 -26.1699 -155.168 -78.5029 -223.501s-113.166 -102.5 -182.499 -102.5
c-34 0 -62 15.333 -84 46s-33 70.167 -33 118.5s11.333 98.333 34 150s52.834 94.334 90.501 128.001s76.334 50.5 116.001 50.5s72.5 -16.833 98.5 -50.5s39 -72.5 39 -116.5z" />
    <glyph glyph-name="odieresis" unicode="&#xf6;" horiz-adv-x="452" 
d="M169 345c-33.333 -58.667 -50 -114.502 -50 -167.502s13 -85.5 39 -97.5c50 8.66699 92.333 41.334 127 98.001s52 111 52 163c0 23.333 -4 45.333 -12 66s-19.333 35.334 -34 44.001c-48 -12 -88.667 -47.333 -122 -106zM416 341.998
c0 -80.667 -26.1699 -155.168 -78.5029 -223.501s-113.166 -102.5 -182.499 -102.5c-34 0 -62 15.333 -84 46s-33 70.167 -33 118.5s11.333 98.333 34 150s52.834 94.334 90.501 128.001s76.334 50.5 116.001 50.5s72.5 -16.833 98.5 -50.5s39 -72.5 39 -116.5z
M419.997 643.497c13.333 -25 20.002 -42.501 20.002 -52.501s-2.66699 -17.833 -8 -23.5s-10.666 -8.5 -15.999 -8.5c-14.667 0 -30.834 8.66699 -48.501 26s-26.5 32.333 -26.5 45s4.66699 24.334 14 35.001s19.166 16 29.499 16s22.166 -12.5 35.499 -37.5z
M272.499 643.496c13.667 -25 20.5 -42.5 20.5 -52.5s-2.83301 -17.833 -8.5 -23.5s-11.167 -8.5 -16.5 -8.5c-14.667 0 -30.667 8.83301 -48 26.5s-26 32.667 -26 45s4.5 23.833 13.5 34.5s18.667 16 29 16s22.333 -12.5 36 -37.5z" />
    <glyph glyph-name="divide" unicode="&#xf7;" horiz-adv-x="600" 
d="M319 476c-20.667 20.667 -30.999 38.167 -30.999 52.5s5.5 28.333 16.5 42s22.333 20.5 34 20.5s25.5 -16 41.5 -48s24 -56.333 24 -73c0 -4.66699 -3.33301 -10 -10 -16s-13.334 -9 -20.001 -9c-16 0 -34.333 10.333 -55 31zM234.001 81
c-20.667 20.667 -31 38.167 -31 52.5s5.5 28.333 16.5 42s22.333 20.5 34 20.5s25.5 -16 41.5 -48s24 -56.333 24 -73c0 -4.66699 -3.5 -10 -10.5 -16s-13.5 -9 -19.5 -9c-16 0 -34.333 10.333 -55 31zM102.001 282c-15.333 0 -29.167 6.33203 -41.5 18.999
s-18.5 25.5 -18.5 38.5s9 19.5 27 19.5c96 0 167 1.33301 213 4c142.667 10 231.334 15 266.001 15s52 -7 52 -21c0 -23.333 -53.333 -41.666 -160 -54.999s-219.334 -20 -338.001 -20z" />
    <glyph glyph-name="oslash" unicode="&#xf8;" horiz-adv-x="452" 
d="M438 342c0 -50 -12.668 -100.332 -38.001 -150.999s-59.5 -92.5 -102.5 -125.5s-87.5 -49.5 -133.5 -49.5c-26.667 0 -52 11.333 -76 34c-22 -23.333 -37.667 -35 -47 -35c-13.333 0 -20 6.33301 -20 19c0 8 12 27.667 36 59c-12.667 25.333 -19 53 -19 83
c0 50 12.333 100.833 37 152.5s57.834 94.667 99.501 129s84.167 51.5 127.5 51.5c31.333 0 59 -11.333 83 -34c26 24 48 36 66 36c5.33301 0 9.83301 -1.83301 13.5 -5.5s5.5 -7.83398 5.5 -12.501c0 -10 -12 -28.333 -36 -55l-13 -15c11.333 -26 17 -53 17 -81z
M110.999 159.001l229.001 268c-10.667 13.333 -22.334 21.333 -35.001 24c-48.667 -5.33301 -93.167 -39.833 -133.5 -103.5s-60.5 -124.5 -60.5 -182.5v-6zM368 349.001c0 6 -0.333984 10.667 -1.00098 14l-236 -266c10 -12 21 -19.333 33 -22
c35.333 1.33301 69.333 18.5 102 51.5s57.834 70.333 75.501 112s26.5 78.5 26.5 110.5z" />
    <glyph glyph-name="ugrave" unicode="&#xf9;" horiz-adv-x="479" 
d="M314 16c-8.66699 0 -15.833 4 -21.5 12s-8.16699 19.333 -7.5 34c2.66699 27.333 11 64 25 110c-28 -46 -58.5 -83.5 -91.5 -112.5s-63.333 -43.5 -91 -43.5s-53.167 12.333 -76.5 37s-35 50.667 -35 78c0 40.667 8.83301 91.5 26.5 152.5s38.334 113.833 62.001 158.5
s43.167 67 58.5 67c10.667 0 20.167 -5.16699 28.5 -15.5s12.5 -20.333 12.5 -30s-9 -32.5 -27 -68.5s-35.833 -79.167 -53.5 -129.5s-26.5 -95.5 -26.5 -135.5c0 -11.333 3.5 -20.833 10.5 -28.5s15.5 -11.5 25.5 -11.5c26.667 0 58.167 23 94.5 69
s68.666 98.833 96.999 158.5s46.166 104.667 53.499 135s12.333 47.333 15 51s7.33398 5.5 14.001 5.5c12 0 24.5 -10 37.5 -30s17.167 -38 12.5 -54l-110 -367c-8 -28 -19 -42 -33 -42zM166.001 696c0 14 5.33301 26.333 16 37c18 19.333 35 20.666 51 3.99902l101 -106
c10 -10 16.333 -20.333 19 -31s1.33398 -19.167 -3.99902 -25.5s-10.333 -10.166 -15 -11.499s-10.334 -0.333008 -17.001 3c-10.667 6.66699 -20 13 -28 19l-110 81c-8.66699 6 -13 16 -13 30z" />
    <glyph glyph-name="uacute" unicode="&#xfa;" horiz-adv-x="479" 
d="M311 631l109 108.001c16 14.667 32 13 48 -5c10 -12 14.833 -25 14.5 -39s-4.83301 -24 -13.5 -30c-80.667 -58.667 -122.334 -88.667 -125.001 -90s-5.5 -2.83301 -8.5 -4.5s-5.5 -2.83398 -7.5 -3.50098s-4.33301 -1.5 -7 -2.5s-5 -1.33301 -7 -1s-4 0.5 -6 0.5
c-3.33301 0.666992 -7.66602 3.66699 -12.999 9c-13.333 16 -8 35.333 16 58zM314 16.001c-8.66699 0 -15.833 4 -21.5 12s-8.16699 19.333 -7.5 34c2.66699 27.333 11 64 25 110c-28 -46 -58.5 -83.5 -91.5 -112.5s-63.333 -43.5 -91 -43.5s-53.167 12.333 -76.5 37
s-35 50.667 -35 78c0 40.667 8.83301 91.5 26.5 152.5s38.334 113.833 62.001 158.5s43.167 67 58.5 67c10.667 0 20.167 -5.16699 28.5 -15.5s12.5 -20.333 12.5 -30s-9 -32.5 -27 -68.5s-35.833 -79.167 -53.5 -129.5s-26.5 -95.5 -26.5 -135.5
c0 -11.333 3.5 -20.833 10.5 -28.5s15.5 -11.5 25.5 -11.5c26.667 0 58.167 23 94.5 69s68.666 98.833 96.999 158.5s46.166 104.667 53.499 135s12.333 47.333 15 51s7.33398 5.5 14.001 5.5c12 0 24.5 -10 37.5 -30s17.167 -38 12.5 -54l-110 -367c-8 -28 -19 -42 -33 -42
z" />
    <glyph glyph-name="ucircumflex" unicode="&#xfb;" horiz-adv-x="479" 
d="M314 16c-8.66699 0 -15.833 4 -21.5 12s-8.16699 19.333 -7.5 34c2.66699 27.333 11 64 25 110c-28 -46 -58.5 -83.5 -91.5 -112.5s-63.333 -43.5 -91 -43.5s-53.167 12.333 -76.5 37s-35 50.667 -35 78c0 40.667 8.83301 91.5 26.5 152.5s38.334 113.833 62.001 158.5
s43.167 67 58.5 67c10.667 0 20.167 -5.16699 28.5 -15.5s12.5 -20.333 12.5 -30s-9 -32.5 -27 -68.5s-35.833 -79.167 -53.5 -129.5s-26.5 -95.5 -26.5 -135.5c0 -11.333 3.5 -20.833 10.5 -28.5s15.5 -11.5 25.5 -11.5c26.667 0 58.167 23 94.5 69
s68.666 98.833 96.999 158.5s46.166 104.667 53.499 135s12.333 47.333 15 51s7.33398 5.5 14.001 5.5c12 0 24.5 -10 37.5 -30s17.167 -38 12.5 -54l-110 -367c-8 -28 -19 -42 -33 -42zM216.501 569.5c-13.667 -9.66699 -25.001 -14.502 -34.001 -14.502
s-16.333 2.66699 -22 8s-8.5 13.666 -8.5 24.999c0 24 23 48.667 69 74c7.33301 4 16.333 9.33301 27 16l26 16c6.66699 4 14 8 22 12c14.667 8 25.334 12 32.001 12s12.834 -1.66699 18.501 -5s10.167 -6.66602 13.5 -9.99902c10.667 -12 20 -23.167 28 -33.5
s16.333 -20.5 25 -30.5l20 -23c4.66699 -5.33301 9.66699 -11.666 15 -18.999c10.667 -13.333 16 -23.833 16 -31.5s-2.5 -13.5 -7.5 -17.5s-10.167 -6 -15.5 -6s-10 0.666992 -14 2s-8.16699 3.5 -12.5 6.5l-12 8.5c-3.66699 2.66699 -8 6.66699 -13 12l-12.5 13.5
c-3.33301 3.66699 -7.66602 8.83398 -12.999 15.501l-12.5 15.5l-12.5 16l-12 15.5c-18.667 -10 -38.334 -23 -59.001 -39s-37.834 -28.833 -51.501 -38.5z" />
    <glyph glyph-name="udieresis" unicode="&#xfc;" horiz-adv-x="479" 
d="M314 16c-8.66699 0 -15.833 4 -21.5 12s-8.16699 19.333 -7.5 34c2.66699 27.333 11 64 25 110c-28 -46 -58.5 -83.5 -91.5 -112.5s-63.333 -43.5 -91 -43.5s-53.167 12.333 -76.5 37s-35 50.667 -35 78c0 40.667 8.83301 91.5 26.5 152.5s38.334 113.833 62.001 158.5
s43.167 67 58.5 67c10.667 0 20.167 -5.16699 28.5 -15.5s12.5 -20.333 12.5 -30s-9 -32.5 -27 -68.5s-35.833 -79.167 -53.5 -129.5s-26.5 -95.5 -26.5 -135.5c0 -11.333 3.5 -20.833 10.5 -28.5s15.5 -11.5 25.5 -11.5c26.667 0 58.167 23 94.5 69
s68.666 98.833 96.999 158.5s46.166 104.667 53.499 135s12.333 47.333 15 51s7.33398 5.5 14.001 5.5c12 0 24.5 -10 37.5 -30s17.167 -38 12.5 -54l-110 -367c-8 -28 -19 -42 -33 -42zM268.001 559c-14.667 0 -30.667 8.83301 -48 26.5s-26 32.667 -26 45
s4.5 23.833 13.5 34.5s18.667 16 29 16s22.333 -12.5 36 -37.5s20.5 -42.5 20.5 -52.5s-2.83301 -17.833 -8.5 -23.5s-11.167 -8.5 -16.5 -8.5zM416.001 559c-14.667 0 -30.832 8.66602 -48.499 25.999s-26.5 32.333 -26.5 45s4.66699 24.334 14 35.001s19.166 16 29.499 16
s22.166 -12.5 35.499 -37.5s20 -42.5 20 -52.5s-2.66699 -17.833 -8 -23.5s-10.666 -8.5 -15.999 -8.5z" />
    <glyph glyph-name="yacute" unicode="&#xfd;" horiz-adv-x="520" 
d="M334 631l109.001 108.001c16 14.667 32 13 48 -5c10 -12 14.833 -25 14.5 -39s-4.83301 -24 -13.5 -30c-80.667 -58.667 -122.334 -88.667 -125.001 -90s-5.5 -2.83301 -8.5 -4.5s-5.5 -2.83398 -7.5 -3.50098s-4.33301 -1.5 -7 -2.5s-5 -1.33301 -7 -1
s-4.33301 0.5 -7 0.5c-2.66699 0.666992 -6.66699 3.66699 -12 9c-13.333 16 -8 35.333 16 58zM168.001 16.001c-28.667 0 -54.502 12.6631 -77.502 37.9961s-34.5 53 -34.5 83c0 62.667 18.167 140.334 54.5 233.001s65.833 139 88.5 139
c10.667 0 20.834 -5.16699 30.501 -15.5s14.5 -20.666 14.5 -30.999s-9 -33.833 -27 -70.5c-54 -110 -81 -197.333 -81 -262c0 -11.333 3.5 -20.833 10.5 -28.5s15.833 -11.5 26.5 -11.5c38.667 -0.666992 82.667 41.333 132 126s88.333 173 117 265
c2.66699 11.333 5.16699 18.833 7.5 22.5s6.83301 5.5 13.5 5.5c14.667 0 28.334 -10.5 41.001 -31.5s15 -43.167 7 -66.5l-181 -514c-33.333 -94 -82 -141 -146 -141c-36.667 0 -72.167 11.333 -106.5 34s-51.5 46.334 -51.5 71.001c0 8.66699 3.83301 18.334 11.5 29.001
s14 16 19 16s12 -4.66699 21 -14l28.5 -30c26 -29.333 52.333 -44 79 -44s49 25.667 67 77l77 219c-46.667 -65.333 -93.667 -98 -141 -98z" />
    <glyph glyph-name="thorn" unicode="&#xfe;" horiz-adv-x="526" 
d="M216 471c43.333 20.667 82.5029 31.001 117.503 31.001s71.167 -19.5 108.5 -58.5s56 -80 56 -123s-18 -83.5 -54 -121.5s-78 -66.333 -126 -85c-84.667 -32.667 -146.334 -32.667 -185.001 0c-52.667 -209.333 -83.334 -314 -92.001 -314s-18.834 6.66699 -30.501 20
s-17.5 26.666 -17.5 39.999s14.333 77 43 191c84.667 342 127 561.333 127 658c0 10.667 1.5 18.334 4.5 23.001s9.16699 7 18.5 7s21 -9.16699 35 -27.5s21 -38.833 21 -61.5s-8.66699 -82.334 -26 -179.001zM380.503 240.001c27.667 26 41.5 53 41.5 81
s-9.5 51.667 -28.5 71s-44.167 29 -75.5 29s-71.666 -14.667 -120.999 -44c-10 -44 -26.667 -112.667 -50 -206c16.667 -6 30.667 -9.33301 42 -10c27.333 -2 59.166 4.16699 95.499 18.5s68.333 34.5 96 60.5z" />
    <glyph glyph-name="ydieresis" unicode="&#xff;" horiz-adv-x="520" 
d="M168 16c-28.667 0 -54.502 12.6631 -77.502 37.9961s-34.5 53 -34.5 83c0 62.667 18.167 140.334 54.5 233.001s65.833 139 88.5 139c10.667 0 20.834 -5.16699 30.501 -15.5s14.5 -20.666 14.5 -30.999s-9 -33.833 -27 -70.5c-54 -110 -81 -197.333 -81 -262
c0 -11.333 3.5 -20.833 10.5 -28.5s15.833 -11.5 26.5 -11.5c38.667 -0.666992 82.667 41.333 132 126s88.333 173 117 265c2.66699 11.333 5.16699 18.833 7.5 22.5s6.83301 5.5 13.5 5.5c14.667 0 28.334 -10.5 41.001 -31.5s15 -43.167 7 -66.5l-181 -514
c-33.333 -94 -82 -141 -146 -141c-36.667 0 -72.167 11.333 -106.5 34s-51.5 46.334 -51.5 71.001c0 8.66699 3.83301 18.334 11.5 29.001s14 16 19 16s12 -4.66699 21 -14l28.5 -30c26 -29.333 52.333 -44 79 -44s49 25.667 67 77l77 219
c-46.667 -65.333 -93.667 -98 -141 -98zM290.998 558.996c-14 0 -29.833 8.83301 -47.5 26.5s-26.5 32.667 -26.5 45s4.5 23.833 13.5 34.5s18.667 16 29 16s22.333 -12.5 36 -37.5s20.5 -42.5 20.5 -52.5s-2.83301 -17.833 -8.5 -23.5s-11.167 -8.5 -16.5 -8.5z
M438.998 558.996c-14.667 0 -30.832 8.66602 -48.499 25.999s-26.5 32.333 -26.5 45s4.66699 24.334 14 35.001s19.166 16 29.499 16s22.166 -12.5 35.499 -37.5s20 -42.5 20 -52.5s-2.66699 -17.833 -8 -23.5s-10.666 -8.5 -15.999 -8.5z" />
    <glyph glyph-name="Amacron" unicode="&#x100;" horiz-adv-x="590" 
d="M555 334c0 -10.667 -27.333 -23.668 -82 -39.001c6.66699 -70 9.33398 -122 8.00098 -156c-1.33301 -83.333 -12 -125 -32 -125c-12.667 0 -21.667 7 -27 21c-9.33301 26 -14.833 49.833 -16.5 71.5l-4.5 57.5c-1.33301 16.667 -2.83301 37.167 -4.5 61.5
s-2.83398 40.5 -3.50098 48.5c-58.667 -14.667 -100.667 -25.5 -126 -32.5l-49 -13.5c-30 -76 -52.667 -130.667 -68 -164s-27.833 -50 -37.5 -50s-20.5 5.83301 -32.5 17.5s-18 23.834 -18 36.501c0 5.33301 19 50.666 57 135.999c-13.333 0 -24.833 3.66699 -34.5 11
s-14.5 17 -14.5 29s28.667 27.667 86 47c8.66699 19.333 17.5 40.333 26.5 63s27 64.5 54 125.5s43.667 100.667 50 119s18.333 33.333 36 45s35.5 17.5 53.5 17.5c20 0 37.833 -29.667 53.5 -89s28.167 -131.666 37.5 -216.999c16 1.33301 27 2 33 2
c36.667 0 55 -7.66699 55 -23zM253 317.999c40 10 84.333 19.001 133 27.001c-8 75.333 -19 147 -33 215c-32 -70.667 -65.333 -151.334 -100 -242.001zM278 720c-10.667 -2 -21.0029 -3.16309 -31.0029 -3.49609s-21 4.66699 -33 15s-18.333 20.166 -19 29.499
c0 12.667 24.167 21.667 72.5 27s118.166 9.66602 209.499 12.999c23.333 0.666992 39.333 -0.5 48 -3.5s13.334 -8.16699 14.001 -15.5c0.666992 -9.33301 -8.16602 -16.333 -26.499 -21s-48.666 -10.334 -90.999 -17.001s-74.166 -11.834 -95.499 -15.501
s-37.333 -6.5 -48 -8.5z" />
    <glyph glyph-name="amacron" unicode="&#x101;" horiz-adv-x="518" 
d="M561 632c0.666992 -9.33301 -8.16895 -16.3291 -26.502 -20.9961s-48.666 -10.334 -90.999 -17.001s-74.166 -11.834 -95.499 -15.501s-37.333 -6.5 -48 -8.5s-21 -3.16699 -31 -3.5s-21 4.66699 -33 15s-18.333 20.166 -19 29.499c0 12.667 24.167 21.667 72.5 27
s118.166 9.66602 209.499 12.999c23.333 0.666992 39.333 -0.5 48 -3.5s13.334 -8.16699 14.001 -15.5zM346.997 509.004c32 0 61.999 -13.834 89.999 -41.501s42 -56.834 42 -87.501c0 -20 -8 -43.333 -24 -70c7.33301 -10 11 -19.167 11 -27.5s-4.66699 -28.833 -14 -61.5
s-15.666 -58 -18.999 -76s-5.5 -33.667 -6.5 -47s-2 -24.333 -3 -33s-2.16699 -17 -3.5 -25c-2.66699 -16 -9.66699 -24 -21 -24c-24 0 -37.667 38.667 -41 116c-28 -34 -58.833 -61.833 -92.5 -83.5s-65.167 -32.5 -94.5 -32.5s-57.333 12.833 -84 38.5
s-40 52.834 -40 81.501c0 40.667 15.333 90.334 46 149.001s70.167 110.667 118.5 156s93.5 68 135.5 68zM408.996 339.003c0 27.333 -4.66699 49.499 -14 66.499s-22.333 25.5 -39 25.5c-28 0 -60.667 -18.667 -98 -56s-69 -79.5 -95 -126.5s-39 -84.833 -39 -113.5
c0 -12.667 4 -22.667 12 -30s18.333 -11.333 31 -12c36.667 -1.33301 78 18.834 124 60.501s79.667 95.167 101 160.5c3.33301 10 9 16.333 17 19v6z" />
    <glyph glyph-name="Abreve" unicode="&#x102;" horiz-adv-x="590" 
d="M555 334c0 -10.667 -27.333 -23.668 -82 -39.001c6.66699 -70 9.33398 -122 8.00098 -156c-1.33301 -83.333 -12 -125 -32 -125c-12.667 0 -21.667 7 -27 21c-9.33301 26 -14.833 49.833 -16.5 71.5l-4.5 57.5c-1.33301 16.667 -2.83301 37.167 -4.5 61.5
s-2.83398 40.5 -3.50098 48.5c-58.667 -14.667 -100.667 -25.5 -126 -32.5l-49 -13.5c-30 -76 -52.667 -130.667 -68 -164s-27.833 -50 -37.5 -50s-20.5 5.83301 -32.5 17.5s-18 23.834 -18 36.501c0 5.33301 19 50.666 57 135.999c-13.333 0 -24.833 3.66699 -34.5 11
s-14.5 17 -14.5 29s28.667 27.667 86 47c8.66699 19.333 17.5 40.333 26.5 63s27 64.5 54 125.5s43.667 100.667 50 119s18.333 33.333 36 45s35.5 17.5 53.5 17.5c20 0 37.833 -29.667 53.5 -89s28.167 -131.666 37.5 -216.999c16 1.33301 27 2 33 2
c36.667 0 55 -7.66699 55 -23zM253 317.999c40 10 84.333 19.001 133 27.001c-8 75.333 -19 147 -33 215c-32 -70.667 -65.333 -151.334 -100 -242.001zM498.5 753.5c-33 -23.667 -65.834 -35.5 -98.501 -35.5s-62.5 11.667 -89.5 35s-40.5 47 -40.5 71
c0 16 4.5 28.833 13.5 38.5s17.5 14.5 25.5 14.5s14.667 -4.83301 20 -14.5s10.166 -20.5 14.499 -32.5s12.333 -22.833 24 -32.5s26.334 -14.5 44.001 -14.5s33.667 5 48 15s26.833 20 37.5 30s20.334 15 29.001 15c14.667 0 22 -7.33301 22 -22
c0 -21.333 -16.5 -43.833 -49.5 -67.5z" />
    <glyph glyph-name="abreve" unicode="&#x103;" horiz-adv-x="518" 
d="M548 693c14.667 0 21.999 -7.33301 21.999 -22c0 -21.333 -16.5 -43.833 -49.5 -67.5s-65.833 -35.5 -98.5 -35.5s-62.5 11.667 -89.5 35s-40.5 47 -40.5 71c0 16 4.5 28.833 13.5 38.5s17.5 14.5 25.5 14.5s14.667 -4.83301 20 -14.5s10.166 -20.5 14.499 -32.5
s12.333 -22.833 24 -32.5s26.334 -14.5 44.001 -14.5s33.667 5 48 15s26.833 20 37.5 30s20.334 15 29.001 15zM346.999 509c32 0 61.999 -13.834 89.999 -41.501s42 -56.834 42 -87.501c0 -20 -8 -43.333 -24 -70c7.33301 -10 11 -19.167 11 -27.5
s-4.66699 -28.833 -14 -61.5s-15.666 -58 -18.999 -76s-5.5 -33.667 -6.5 -47s-2 -24.333 -3 -33s-2.16699 -17 -3.5 -25c-2.66699 -16 -9.66699 -24 -21 -24c-24 0 -37.667 38.667 -41 116c-28 -34 -58.833 -61.833 -92.5 -83.5s-65.167 -32.5 -94.5 -32.5
s-57.333 12.833 -84 38.5s-40 52.834 -40 81.501c0 40.667 15.333 90.334 46 149.001s70.167 110.667 118.5 156s93.5 68 135.5 68zM408.998 338.999c0 27.333 -4.66699 49.499 -14 66.499s-22.333 25.5 -39 25.5c-28 0 -60.667 -18.667 -98 -56s-69 -79.5 -95 -126.5
s-39 -84.833 -39 -113.5c0 -12.667 4 -22.667 12 -30s18.333 -11.333 31 -12c36.667 -1.33301 78 18.834 124 60.501s79.667 95.167 101 160.5c3.33301 10 9 16.333 17 19v6z" />
    <glyph glyph-name="Aogonek" unicode="&#x104;" horiz-adv-x="590" 
d="M150 64c-15.333 -33.333 -27.8311 -50.002 -37.498 -50.002s-20.5 5.83301 -32.5 17.5s-18 23.834 -18 36.501c0 5.33301 19 50.666 57 135.999c-13.333 0 -24.833 3.66699 -34.5 11s-14.5 17 -14.5 29s28.667 27.667 86 47c8.66699 19.333 17.5 40.333 26.5 63
s27 64.5 54 125.5s43.667 100.667 50 119s18.333 33.333 36 45s35.5 17.5 53.5 17.5c20 0 37.833 -29.667 53.5 -89s28.167 -131.666 37.5 -216.999c16 1.33301 27 2 33 2c36.667 0 55 -7.66699 55 -23c0 -10.667 -27.333 -23.667 -82 -39
c13.333 -140.667 11 -229.667 -7 -267c-4.66699 -11.333 -13 -21.666 -25 -30.999c-44.667 -34 -67 -60.333 -67 -79c0 -12.667 12 -19 36 -19c8 0 17.5 2 28.5 6s18.167 6 21.5 6c18 2 29 -5.33301 33 -22c1.33301 -8 -1.33398 -15.833 -8.00098 -23.5
s-19.5 -14.5 -38.5 -20.5s-39.833 -9 -62.5 -9s-42.5 6.33301 -59.5 19s-25.5 29.667 -25.5 51s11.167 46.5 33.5 75.5s47.833 54.5 76.5 76.5l5 3c-6 24 -10.833 63.5 -14.5 118.5s-5.83398 86.5 -6.50098 94.5c-58.667 -14.667 -100.667 -25.5 -126 -32.5l-49 -13.5
c-30 -76 -52.667 -130.667 -68 -164zM253.002 317.998c40 10 84.333 19.001 133 27.001c-8 75.333 -19 147 -33 215c-32 -70.667 -65.333 -151.334 -100 -242.001z" />
    <glyph glyph-name="aogonek" unicode="&#x105;" horiz-adv-x="518" 
d="M455 310c7.33301 -10 11.002 -19.1689 11.002 -27.502s-4.66699 -28.833 -14 -61.5s-15.666 -58.5 -18.999 -77.5s-5.83301 -38.833 -7.5 -59.5s-3.16699 -34.334 -4.5 -41.001c0 -16 -9.66699 -31.667 -29 -47c-44.667 -34 -67 -60.333 -67 -79c0 -12.667 12 -19 36 -19
c8 0 17.5 2 28.5 6s18.167 6 21.5 6c18 2 29 -5.33301 33 -22c1.33301 -8 -1.33398 -15.833 -8.00098 -23.5s-19.5 -14.5 -38.5 -20.5s-39.833 -9 -62.5 -9s-42.5 6.33301 -59.5 19s-25.5 29.667 -25.5 51s11.333 46.333 34 75c23.333 30.667 49.666 57.334 78.999 80.001
c1.33301 0.666992 2.33301 1 3 1c-4.66699 20.667 -7.33398 44.334 -8.00098 71.001c-28 -34 -58.833 -61.833 -92.5 -83.5s-65.167 -32.5 -94.5 -32.5s-57.333 12.833 -84 38.5s-40 52.834 -40 81.501c0 40.667 15.333 90.334 46 149.001s70.167 110.667 118.5 156
s93.5 68 135.5 68c32 0 62 -13.833 90 -41.5s42 -56.834 42 -87.501c0 -20 -8 -43.333 -24 -70zM409.002 338.998c0 27.333 -4.66699 49.499 -14 66.499s-22.333 25.5 -39 25.5c-28 0 -60.667 -18.667 -98 -56s-69 -79.5 -95 -126.5s-39 -84.833 -39 -113.5
c0 -12.667 4 -22.667 12 -30s18.333 -11.333 31 -12c36.667 -1.33301 78 18.834 124 60.501s79.667 95.167 101 160.5c3.33301 10 9 16.333 17 19v6z" />
    <glyph glyph-name="Cacute" unicode="&#x106;" horiz-adv-x="572" 
d="M502 623.5c18 -20.333 26.998 -37.502 26.998 -51.502s-4.66699 -21 -14 -21c-4.66699 0 -13.167 2.33301 -25.5 7s-24.5 7 -36.5 7c-23.333 0 -52.166 -11.833 -86.499 -35.5s-67 -53 -98 -88s-57.5 -75.5 -79.5 -121.5s-33 -88.667 -33 -128
c0 -25.333 8.83301 -46.166 26.5 -62.499s43 -24.5 76 -24.5s68 6.33301 105 19s67.333 25.334 91 38.001s38.834 19 45.501 19c11.333 0 17 -7.16699 17 -21.5s-14.333 -32.833 -43 -55.5s-64.5 -43 -107.5 -61s-81.833 -27 -116.5 -27c-44.667 0 -87.167 19 -127.5 57
s-60.5 78.333 -60.5 121c0 57.333 19.5 122 58.5 194s89.167 134.333 150.5 187s120.333 79 177 79c18 0 36 -10.167 54 -30.5zM548.998 888.998c16 14.667 32.001 13.001 48.001 -4.99902c10 -12 14.833 -25 14.5 -39s-4.83301 -24 -13.5 -30
c-80.667 -58.667 -122.334 -88.667 -125.001 -90s-5.5 -2.83301 -8.5 -4.5s-5.5 -2.83398 -7.5 -3.50098s-4.33301 -1.5 -7 -2.5s-5 -1.33301 -7 -1s-4.33301 0.5 -7 0.5c-2.66699 0.666992 -6.66699 3.66699 -12 9c-13.333 16 -8 35.333 16 58z" />
    <glyph glyph-name="cacute" unicode="&#x107;" horiz-adv-x="455" 
d="M328 509c28 0 51.9971 -11.8311 71.9971 -35.498s30 -43.167 30 -58.5s-5.33301 -23 -16 -23c-7.33301 0 -19.166 6.33301 -35.499 19s-31.166 19 -44.499 19c-36.667 0 -79.334 -32.333 -128.001 -97s-73 -121 -73 -169c0 -21.333 6.83301 -38.5 20.5 -51.5
s33 -19.5 58 -19.5s48.167 2.16699 69.5 6.5s37.333 9.16602 48 14.499c26.667 14.667 45.834 22 57.501 22s17.5 -6 17.5 -18c0 -18 -23.167 -39.5 -69.5 -64.5s-88.666 -37.5 -126.999 -37.5s-74.166 14.667 -107.499 44s-50 65.166 -50 107.499s13.833 90.5 41.5 144.5
s63.667 100.333 108 139s87.166 58 128.499 58zM422.997 739.002c16 14.667 32.001 13.001 48.001 -4.99902c10 -12 14.833 -25 14.5 -39s-4.83301 -24 -13.5 -30c-80.667 -58.667 -122.334 -88.667 -125.001 -90s-5.5 -2.83301 -8.5 -4.5s-5.5 -2.83398 -7.5 -3.50098
s-4.33301 -1.5 -7 -2.5s-5 -1.33301 -7 -1s-4.33301 0.5 -7 0.5c-2.66699 0.666992 -6.66699 3.66699 -12 9c-13.333 16 -8 35.333 16 58z" />
    <glyph glyph-name="Ccaron" unicode="&#x10c;" horiz-adv-x="572" 
d="M502 623.5c18 -20.333 26.998 -37.502 26.998 -51.502s-4.66699 -21 -14 -21c-4.66699 0 -13.167 2.33301 -25.5 7s-24.5 7 -36.5 7c-23.333 0 -52.166 -11.833 -86.499 -35.5s-67 -53 -98 -88s-57.5 -75.5 -79.5 -121.5s-33 -88.667 -33 -128
c0 -25.333 8.83301 -46.166 26.5 -62.499s43 -24.5 76 -24.5s68 6.33301 105 19s67.333 25.334 91 38.001s38.834 19 45.501 19c11.333 0 17 -7.16699 17 -21.5s-14.333 -32.833 -43 -55.5s-64.5 -43 -107.5 -61s-81.833 -27 -116.5 -27c-44.667 0 -87.167 19 -127.5 57
s-60.5 78.333 -60.5 121c0 57.333 19.5 122 58.5 194s89.167 134.333 150.5 187s120.333 79 177 79c18 0 36 -10.167 54 -30.5zM580.998 869.998c19.333 0 29.001 -7.66504 29.001 -22.998c0 -9.33301 -3.83301 -17.833 -11.5 -25.5s-21.167 -17.5 -40.5 -29.5
s-33 -21 -41 -27s-19 -15 -33 -27c-26.667 -22.667 -44.334 -34 -53.001 -34c-13.333 0 -41.666 21.667 -84.999 65s-65 77.333 -65 102c0 9.33301 2.83301 17.166 8.5 23.499s13 9.5 22 9.5s18.167 -5.83301 27.5 -17.5l39.5 -51c17 -22.333 36.167 -41.833 57.5 -58.5
c34.667 31.333 64.667 54.666 90 69.999s43.666 23 54.999 23z" />
    <glyph glyph-name="ccaron" unicode="&#x10d;" horiz-adv-x="455" 
d="M328 509c28 0 51.9971 -11.8311 71.9971 -35.498s30 -43.167 30 -58.5s-5.33301 -23 -16 -23c-7.33301 0 -19.166 6.33301 -35.499 19s-31.166 19 -44.499 19c-36.667 0 -79.334 -32.333 -128.001 -97s-73 -121 -73 -169c0 -21.333 6.83301 -38.5 20.5 -51.5
s33 -19.5 58 -19.5s48.167 2.16699 69.5 6.5s37.333 9.16602 48 14.499c26.667 14.667 45.834 22 57.501 22s17.5 -6 17.5 -18c0 -18 -23.167 -39.5 -69.5 -64.5s-88.666 -37.5 -126.999 -37.5s-74.166 14.667 -107.499 44s-50 65.166 -50 107.499s13.833 90.5 41.5 144.5
s63.667 100.333 108 139s87.166 58 128.499 58zM454.997 720.002c19.333 0 29.001 -7.66504 29.001 -22.998c0 -9.33301 -3.83301 -17.833 -11.5 -25.5s-21.167 -17.5 -40.5 -29.5s-33 -21 -41 -27s-19 -15 -33 -27c-26.667 -22.667 -44.334 -34 -53.001 -34
c-13.333 0 -41.666 21.667 -84.999 65s-65 77.333 -65 102c0 9.33301 2.83301 17.166 8.5 23.499s13 9.5 22 9.5s18.167 -5.83301 27.5 -17.5l39.5 -51c17 -22.333 36.167 -41.833 57.5 -58.5c34.667 31.333 64.667 54.666 90 69.999s43.666 23 54.999 23z" />
    <glyph glyph-name="Dcaron" unicode="&#x10e;" horiz-adv-x="605" 
d="M133 654c42 0 87.498 -8.66504 136.498 -25.998s94.333 -40.333 136 -69s76.5 -64 104.5 -106s42 -85 42 -129c0 -28.667 -15.667 -61.5 -47 -98.5s-69 -70.667 -113 -101s-90.667 -56 -140 -77s-90.666 -31.5 -123.999 -31.5c-12.667 0 -26.5 9.83301 -41.5 29.5
s-22.5 39.667 -22.5 60s17.333 91.166 52 212.499s53.334 204.666 56.001 249.999c-18 8 -32.667 18.333 -44 31s-17 24 -17 34c0 14 7.33301 21 22 21zM463.998 331.002c0 38.667 -22.333 80.332 -67 124.999s-95 75.667 -151 93c2.66699 -13.333 4 -23.333 4 -30
c0 -24.667 -22.333 -115 -67 -271c-0.666992 -2.66699 -1.66699 -6 -3 -10c-13.333 -37.333 -23 -81.666 -29 -132.999c42 6.66699 88.167 24.667 138.5 54s92 60.5 125 93.5s49.5 59.167 49.5 78.5zM340.998 704c-13.333 0 -41.665 21.6689 -84.998 65.002
s-65 77.333 -65 102c0 9.33301 2.83301 17.166 8.5 23.499s13 9.5 22 9.5s18.167 -5.83301 27.5 -17.5l39.5 -51c17 -22.333 36.167 -41.833 57.5 -58.5c34.667 31.333 64.667 54.666 90 69.999s43.666 23 54.999 23c19.333 0 29 -7.66699 29 -23
c0 -9.33301 -3.83301 -17.833 -11.5 -25.5s-21.167 -17.5 -40.5 -29.5s-33 -21 -41 -27s-19 -15 -33 -27c-26.667 -22.667 -44.334 -34 -53.001 -34z" />
    <glyph glyph-name="dcaron" unicode="&#x10f;" horiz-adv-x="727" 
d="M620.5 761c10.333 8.66699 23.001 12.998 38.001 12.998s30.167 -7 45.5 -21s23 -30.667 23 -50c0 -34 -16.667 -65.333 -50 -94s-62.333 -43 -87 -43c-14 0 -21 5.33301 -21 16c0 8.66699 13.5 23.834 40.5 45.501s42.5 40.5 46.5 56.5
c-4.66699 8.66699 -14.334 16.667 -29.001 24s-22 15.833 -22 25.5s5.16699 18.834 15.5 27.501zM470.501 781.998c3 4.66699 9.16797 7.00195 18.501 7.00195s21 -9.33301 35 -28s21 -36.667 21 -54s-8.16699 -66.5 -24.5 -147.5s-35.833 -167.167 -58.5 -258.5
c-47.333 -190 -78 -285 -92 -285c-9.33301 0 -19 5.33301 -29 16s-15 21.667 -15 33s3 29.666 9 54.999c-66 -69.333 -124.667 -104 -176 -104c-30 0 -56.5 13 -79.5 39s-34.5 53 -34.5 81c0 41.333 11.333 90.666 34 147.999s55.167 109.166 97.5 155.499
s87.166 69.5 134.499 69.5s80.333 -29.333 99 -88c33.333 142 52 254.667 56 338c0 10.667 1.5 18.334 4.5 23.001zM378.002 298c0 37.333 -6.00098 68.833 -18.001 94.5s-27.333 38.5 -46 38.5c-28.667 0 -58.5 -17.5 -89.5 -52.5s-55.833 -75.833 -74.5 -122.5
s-28 -87.667 -28 -123c0 -12.667 4.83301 -23 14.5 -31s20.834 -12 33.501 -12c26 0 61.667 19.167 107 57.5s78 82.833 98 133.5l3 12v5z" />
    <glyph glyph-name="Dcroat" unicode="&#x110;" horiz-adv-x="615" 
d="M126 633c0 14 7.33203 21.001 21.999 21.001c42 0 87.5 -8.66699 136.5 -26s94.333 -40.333 136 -69s76.5 -64 104.5 -106s42 -85 42 -129c0 -28.667 -15.667 -61.5 -47 -98.5s-69 -70.667 -113 -101s-90.667 -56 -140 -77s-90.666 -31.5 -123.999 -31.5
c-12.667 0 -26.5 9.83301 -41.5 29.5s-22.5 39.5 -22.5 59.5s13 76.333 39 169l-42 -5c-19.333 -2.66699 -34.833 -1 -46.5 5s-18.167 13.833 -19.5 23.5s3.66699 18.5 15 26.5s26 13.333 44 16l70 8c28.667 101.333 44.667 174.666 48 219.999c-18 8 -32.667 18.333 -44 31
s-17 24 -17 34zM478.999 331.001c0 38.667 -22.333 80.333 -67 125s-95 75.667 -151 93c2.66699 -13.333 4 -23.333 4 -30c0 -25.333 -11.667 -79 -35 -161c41.333 5.33301 71.333 4.5 90 -2.5s28.667 -16.5 30 -28.5c1.33301 -7.33301 -2.16699 -14 -10.5 -20
s-19.5 -9.66699 -33.5 -11l-97 -11c-24.667 -82 -39 -142 -43 -180c42 6.66699 88.167 24.667 138.5 54s92 60.5 125 93.5s49.5 59.167 49.5 78.5z" />
    <glyph glyph-name="dcroat" unicode="&#x111;" horiz-adv-x="508" 
d="M370 16c-9.33301 0 -19.0029 5.33789 -29.0029 16.0049s-15 21.667 -15 33s3 29.666 9 54.999c-66 -69.333 -124.667 -104 -176 -104c-30 0 -56.5 13 -79.5 39s-34.5 53 -34.5 81c0 41.333 11.333 90.666 34 147.999s55.167 109.166 97.5 155.499
s87.166 69.5 134.499 69.5s80.333 -29.333 99 -88c14 64.667 25.333 119 34 163c-40 -6.66699 -65.333 -10.334 -76 -11.001s-22 4.16602 -34 14.499s-18.333 20.166 -19 29.499c0 16 46.667 27 140 33c4.66699 32 7.66699 60.833 9 86.5s3.5 40.834 6.5 45.501
s9.16699 7 18.5 7s21 -9.33301 35 -28s21 -35.167 21 -49.5s-2.33301 -33.166 -7 -56.499c62.667 2 98.334 1.5 107.001 -1.5s13.334 -8.5 14.001 -16.5s-7.16602 -14.333 -23.499 -19s-52.166 -11.334 -107.499 -20.001c-14.667 -79.333 -36.667 -178.333 -66 -297
c-47.333 -190 -78 -285 -92 -285zM377.997 298.005c0 37.333 -6.00098 68.833 -18.001 94.5s-27.333 38.5 -46 38.5c-28.667 0 -58.5 -17.5 -89.5 -52.5s-55.833 -75.833 -74.5 -122.5s-28 -87.667 -28 -123c0 -12.667 4.83301 -23 14.5 -31s20.834 -12 33.501 -12
c26 0 61.667 19.167 107 57.5s78 82.833 98 133.5l3 12v5z" />
    <glyph glyph-name="Emacron" unicode="&#x112;" horiz-adv-x="552" 
d="M242 373l175.998 8.99902c25.333 0 38 -5.33301 38 -16c0 -43.333 -85.667 -65 -257 -65c-34.667 -108 -52 -170.333 -52 -187c0 -13.333 7.66699 -20 23 -20c73.333 0 153.333 11 240 33c29.333 7.33301 46.333 11 51 11c11.333 0 17 -7.33301 17 -22
c0 -24 -34.667 -47.167 -104 -69.5s-137 -33.5 -203 -33.5c-29.333 0 -55.333 8.33301 -78 25s-34 37.5 -34 62.5s9.33301 67.5 28 127.5s37.334 123.833 56.001 191.5s28 124.5 28 170.5c0 10.667 2 19 6 25c12.667 22.667 82.167 34 208.5 34s189.5 -10 189.5 -30
c0 -13.333 -13.667 -22.333 -41 -27c-21.333 -4 -51.166 -7.33301 -89.499 -10s-63.5 -4.66699 -75.5 -6s-50 -6.66602 -114 -15.999v-2c0 -44 -11.667 -105.667 -35 -185h22zM294.998 719.999c-10.667 -2 -21.0029 -3.16309 -31.0029 -3.49609s-21 4.66699 -33 15
s-18.333 20.166 -19 29.499c0 12.667 24.167 21.667 72.5 27s118.166 9.66602 209.499 12.999c23.333 0.666992 39.333 -0.5 48 -3.5s13.334 -8.16699 14.001 -15.5c0.666992 -9.33301 -8.16602 -16.333 -26.499 -21s-48.666 -10.334 -90.999 -17.001
s-74.166 -11.834 -95.499 -15.501s-37.333 -6.5 -48 -8.5z" />
    <glyph glyph-name="emacron" unicode="&#x113;" horiz-adv-x="454" 
d="M465 632c0.666992 -9.33301 -8.16895 -16.3291 -26.502 -20.9961s-48.666 -10.334 -90.999 -17.001s-74.166 -11.834 -95.499 -15.501s-37.333 -6.5 -48 -8.5s-21 -3.16699 -31 -3.5s-21 4.66699 -33 15s-18.333 20.166 -19 29.499c0 12.667 24.167 21.667 72.5 27
s118.166 9.66602 209.499 12.999c23.333 0.666992 39.333 -0.5 48 -3.5s13.334 -8.16699 14.001 -15.5zM167.997 456.504c40 35 79.502 52.4971 118.502 52.4971s74.5 -18.5 106.5 -55.5s48 -73.167 48 -108.5s-19 -64 -57 -86s-80.333 -33 -127 -33s-92 5.66699 -136 17
c-9.33301 -29.333 -14 -56.166 -14 -80.499s7.66699 -43.166 23 -56.499s39.166 -20 71.499 -20s65.833 6 100.5 18s54 18 58 18c16.667 0 25 -6.33301 25 -19c0 -17.333 -20.167 -36.166 -60.5 -56.499s-79.5 -30.5 -117.5 -30.5c-50.667 0 -92.334 15.333 -125.001 46
s-49 69.5 -49 116.5s12.5 96.333 37.5 148s57.5 95 97.5 130zM142.999 296.001c29.333 -6 61.668 -9.00098 97.001 -9.00098s65.333 5.5 90 16.5s37 25.833 37 44.5s-8.33301 37.834 -25 57.501s-33.334 29.5 -50.001 29.5c-26 0 -52.667 -13.333 -80 -40
s-50.333 -59.667 -69 -99z" />
    <glyph glyph-name="Edotaccent" unicode="&#x116;" horiz-adv-x="552" 
d="M242 373l175.998 8.99902c25.333 0 38 -5.33301 38 -16c0 -43.333 -85.667 -65 -257 -65c-34.667 -108 -52 -170.333 -52 -187c0 -13.333 7.66699 -20 23 -20c73.333 0 153.333 11 240 33c29.333 7.33301 46.333 11 51 11c11.333 0 17 -7.33301 17 -22
c0 -24 -34.667 -47.167 -104 -69.5s-137 -33.5 -203 -33.5c-29.333 0 -55.333 8.33301 -78 25s-34 37.5 -34 62.5s9.33301 67.5 28 127.5s37.334 123.833 56.001 191.5s28 124.5 28 170.5c0 10.667 2 19 6 25c12.667 22.667 82.167 34 208.5 34s189.5 -10 189.5 -30
c0 -13.333 -13.667 -22.333 -41 -27c-21.333 -4 -51.166 -7.33301 -89.499 -10s-63.5 -4.66699 -75.5 -6s-50 -6.66602 -114 -15.999v-2c0 -44 -11.667 -105.667 -35 -185h22zM418.998 710.999c-14 0 -30.167 8.66699 -48.5 26s-27.5 32.5 -27.5 45.5s5 25.667 15 38
s20.333 18.5 31 18.5s22.667 -14 36 -42s20 -49.333 20 -64c0 -4 -2.83301 -8.66699 -8.5 -14s-11.5 -8 -17.5 -8z" />
    <glyph glyph-name="edotaccent" unicode="&#x117;" horiz-adv-x="454" 
d="M384 259c-38 -22 -80.3311 -33.0029 -126.998 -33.0029s-92 5.66699 -136 17c-9.33301 -29.333 -14 -56.166 -14 -80.499s7.66699 -43.166 23 -56.499s39.166 -20 71.499 -20s65.833 6 100.5 18s54 18 58 18c16.667 0 25 -6.33301 25 -19
c0 -17.333 -20.167 -36.166 -60.5 -56.499s-79.5 -30.5 -117.5 -30.5c-50.667 0 -92.334 15.333 -125.001 46s-49 69.5 -49 116.5s12.5 96.333 37.5 148s57.5 95 97.5 130s79.5 52.5 118.5 52.5s74.5 -18.5 106.5 -55.5s48 -73.167 48 -108.5s-19 -64 -57 -86z
M292.002 434.997c-26 0 -52.665 -13.334 -79.998 -40.001s-50.333 -59.667 -69 -99c29.333 -6 61.666 -9 96.999 -9s65.333 5.5 90 16.5s37 25.833 37 44.5s-8.33301 37.834 -25 57.501s-33.334 29.5 -50.001 29.5zM328.004 560.996c-14 0 -30.167 8.66699 -48.5 26
s-27.5 32.5 -27.5 45.5s5 25.667 15 38s20.333 18.5 31 18.5s22.667 -14 36 -42s20 -49.333 20 -64c0 -4 -2.83301 -8.66699 -8.5 -14s-11.5 -8 -17.5 -8z" />
    <glyph glyph-name="Eogonek" unicode="&#x118;" horiz-adv-x="552" 
d="M242 373l175.999 8.99707c25.333 0 38 -5.33301 38 -16c0 -43.333 -85.667 -65 -257 -65c-34.667 -108 -52 -170.333 -52 -187c0 -13.333 7.66699 -20 23 -20c73.333 0 153.333 11 240 33c29.333 7.33301 46.333 11 51 11c11.333 0 17 -6.33301 17 -19
s-8.66699 -25 -26 -37c-2.66699 -12 -11.667 -24 -27 -36c-44.667 -34 -67 -60.333 -67 -79c0 -12.667 12 -19 36 -19c8 0 17.5 2 28.5 6s18.167 6 21.5 6c18 2 29 -5.33301 33 -22c1.33301 -8 -1.33398 -15.833 -8.00098 -23.5s-19.667 -14.5 -39 -20.5
s-40.166 -9 -62.499 -9s-42 6.33301 -59 19s-25.5 29.334 -25.5 50.001s11.333 46.334 34 77.001c-53.333 -12 -98.333 -18 -135 -18s-66.334 8.33301 -89.001 25s-34 37.5 -34 62.5s9.33301 67.5 28 127.5s37.334 123.833 56.001 191.5s28 124.5 28 170.5
c0 10.667 2 19 6 25c12.667 22.667 82.167 34 208.5 34s189.5 -10 189.5 -30c0 -13.333 -13.667 -22.333 -41 -27c-21.333 -4 -51.166 -7.33301 -89.499 -10s-63.5 -4.66699 -75.5 -6s-50 -6.66602 -114 -15.999v-2c0 -44 -11.667 -105.667 -35 -185h22z" />
    <glyph glyph-name="eogonek" unicode="&#x119;" horiz-adv-x="454" 
d="M384 259c-38 -22 -80.332 -33 -126.999 -33s-92 5.66699 -136 17c-9.33301 -29.333 -14 -56.166 -14 -80.499s7.66699 -43.166 23 -56.499s39.166 -20 71.499 -20s65.833 6 100.5 18s54 18 58 18c16.667 0 25 -6.33301 25 -19c0 -8.66699 -6.16699 -18.334 -18.5 -29.001
s-28.166 -20.667 -47.499 -30c-6 -8 -12.667 -15 -20 -21c-44.667 -34 -67 -60.333 -67 -79c0 -12.667 12 -19 36 -19c8 0 17.5 2 28.5 6s18.167 6 21.5 6c18 2 29 -5.33301 33 -22c1.33301 -8 -1.33398 -15.833 -8.00098 -23.5s-19.5 -14.5 -38.5 -20.5
s-39.833 -9 -62.5 -9s-42.5 6.33301 -59.5 19s-25.5 27.667 -25.5 45c0 26.667 13.333 56.667 40 90c-48 2 -87.333 18.167 -118 48.5s-46 68.666 -46 114.999s12.5 95.333 37.5 147s57.5 95 97.5 130s79.5 52.5 118.5 52.5s74.5 -18.5 106.5 -55.5s48 -73.167 48 -108.5
s-19 -64 -57 -86zM292.001 435c-26 0 -52.665 -13.334 -79.998 -40.001s-50.333 -59.667 -69 -99c29.333 -6 61.666 -9 96.999 -9s65.333 5.5 90 16.5s37 25.833 37 44.5s-8.33301 37.834 -25 57.501s-33.334 29.5 -50.001 29.5z" />
    <glyph glyph-name="Ecaron" unicode="&#x11a;" horiz-adv-x="552" 
d="M242 373l175.998 8.99902c25.333 0 38 -5.33301 38 -16c0 -43.333 -85.667 -65 -257 -65c-34.667 -108 -52 -170.333 -52 -187c0 -13.333 7.66699 -20 23 -20c73.333 0 153.333 11 240 33c29.333 7.33301 46.333 11 51 11c11.333 0 17 -7.33301 17 -22
c0 -24 -34.667 -47.167 -104 -69.5s-137 -33.5 -203 -33.5c-29.333 0 -55.333 8.33301 -78 25s-34 37.5 -34 62.5s9.33301 67.5 28 127.5s37.334 123.833 56.001 191.5s28 124.5 28 170.5c0 10.667 2 19 6 25c12.667 22.667 82.167 34 208.5 34s189.5 -10 189.5 -30
c0 -13.333 -13.667 -22.333 -41 -27c-21.333 -4 -51.166 -7.33301 -89.499 -10s-63.5 -4.66699 -75.5 -6s-50 -6.66602 -114 -15.999v-2c0 -44 -11.667 -105.667 -35 -185h22zM383.998 703.999c-13.333 0 -41.666 21.6689 -84.999 65.002s-65 77.333 -65 102
c0 9.33301 2.83301 17.166 8.5 23.499s13 9.5 22 9.5s18.167 -5.83301 27.5 -17.5l39.5 -51c17 -22.333 36.167 -41.833 57.5 -58.5c34.667 31.333 64.667 54.666 90 69.999s43.666 23 54.999 23c19.333 0 29 -7.66699 29 -23c0 -9.33301 -3.83301 -17.833 -11.5 -25.5
s-21.167 -17.5 -40.5 -29.5s-33 -21 -41 -27s-18.667 -15 -32 -27c-27.333 -22.667 -45.333 -34 -54 -34z" />
    <glyph glyph-name="ecaron" unicode="&#x11b;" horiz-adv-x="454" 
d="M443 720c19.333 0 29.001 -7.66504 29.001 -22.998c0 -9.33301 -3.83301 -17.833 -11.5 -25.5s-21.167 -17.5 -40.5 -29.5s-33 -21 -41 -27s-19 -15 -33 -27c-26.667 -22.667 -44.334 -34 -53.001 -34c-13.333 0 -41.666 21.667 -84.999 65s-65 77.333 -65 102
c0 9.33301 2.83301 17.166 8.5 23.499s13 9.5 22 9.5s18.167 -5.83301 27.5 -17.5l39.5 -51c17 -22.333 36.167 -41.833 57.5 -58.5c34.667 31.333 64.667 54.666 90 69.999s43.666 23 54.999 23zM168.001 456.502c40 35 79.502 52.4971 118.502 52.4971
s74.5 -18.5 106.5 -55.5s48 -73.167 48 -108.5s-19 -64 -57 -86s-80.333 -33 -127 -33s-92 5.66699 -136 17c-9.33301 -29.333 -14 -56.166 -14 -80.499s7.66699 -43.166 23 -56.499s39.166 -20 71.499 -20s65.833 6 100.5 18s54 18 58 18c16.667 0 25 -6.33301 25 -19
c0 -17.333 -20.167 -36.166 -60.5 -56.499s-79.5 -30.5 -117.5 -30.5c-50.667 0 -92.334 15.333 -125.001 46s-49 69.5 -49 116.5s12.5 96.333 37.5 148s57.5 95 97.5 130zM143.003 295.999c29.333 -6 61.668 -9.00098 97.001 -9.00098s65.333 5.5 90 16.5
s37 25.833 37 44.5s-8.33301 37.834 -25 57.501s-33.334 29.5 -50.001 29.5c-26 0 -52.667 -13.333 -80 -40s-50.333 -59.667 -69 -99z" />
    <glyph glyph-name="Gbreve" unicode="&#x11e;" horiz-adv-x="562" 
d="M593 843c14.667 0 21.999 -7.33301 21.999 -22c0 -21.333 -16.5 -43.833 -49.5 -67.5s-65.833 -35.5 -98.5 -35.5s-62.5 11.667 -89.5 35s-40.5 47 -40.5 71c0 16 4.5 28.833 13.5 38.5s17.5 14.5 25.5 14.5s14.667 -4.83301 20 -14.5s10.166 -20.5 14.499 -32.5
s12.333 -22.833 24 -32.5s26.334 -14.5 44.001 -14.5s33.667 5 48 15s26.833 20 37.5 30s20.334 15 29.001 15zM426.999 565c-36 0 -77.3369 -20.001 -124.004 -60.001s-87.167 -90.5 -121.5 -151.5s-51.5 -117.833 -51.5 -170.5c0 -24.667 7.33301 -44.667 22 -60
s34 -23 58 -23s54.833 15.333 92.5 46s72.834 69.334 105.501 116.001c-34 -9.33301 -58 -14 -72 -14s-27.833 4.83301 -41.5 14.5s-20.5 18.834 -20.5 27.501c0 22.667 49 34 147 34c22.667 0 41.334 -9.16699 56.001 -27.5s22 -40 22 -65s-16 -83.333 -48 -175
s-56.333 -137.5 -73 -137.5c-9.33301 0 -16.666 2.83301 -21.999 8.5s-8 13.167 -8 22.5s3.66699 25.166 11 47.499l31 91.5c13.333 38.667 24.666 74 33.999 106c-31.333 -54.667 -66.166 -98.167 -104.499 -130.5s-76.5 -48.5 -114.5 -48.5s-75.167 16.833 -111.5 50.5
s-54.5 70.5 -54.5 110.5c0 62 19.167 130.333 57.5 205s87.666 138.667 147.999 192s118.5 80 174.5 80c18.667 0 36.834 -10.5 54.501 -31.5s26.5 -38.333 26.5 -52s-5 -20.5 -15 -20.5c-4.66699 0 -12.667 2.5 -24 7.5s-22.666 7.5 -33.999 7.5z" />
    <glyph glyph-name="gbreve" unicode="&#x11f;" horiz-adv-x="471" 
d="M500 693c14.667 0 21.999 -7.33301 21.999 -22c0 -21.333 -16.5 -43.833 -49.5 -67.5s-65.833 -35.5 -98.5 -35.5s-62.5 11.667 -89.5 35s-40.5 47 -40.5 71c0 16 4.5 28.833 13.5 38.5s17.5 14.5 25.5 14.5s14.667 -4.83301 20 -14.5s10.166 -20.5 14.499 -32.5
s12.333 -22.833 24 -32.5s26.334 -14.5 44.001 -14.5s33.667 5 48 15s26.833 20 37.5 30s20.334 15 29.001 15zM149.999 -245c-47.333 0 -87.168 12.5059 -119.501 37.5059s-48.5 50.167 -48.5 75.5c0 9.33301 3 19.166 9 29.499s12.333 15.5 19 15.5s14.334 -5 23.001 -15
s16.834 -20.833 24.501 -32.5s19.5 -22.5 35.5 -32.5s31.5 -15 46.5 -15s26.333 2.16699 34 6.5s14.834 11.5 21.501 21.5s12.5 20.167 17.5 30.5s10.167 24.166 15.5 41.499l14 46.5c4 13.667 9 32 15 55l15 56.5c-53.333 -40 -96.5 -60 -129.5 -60s-61.5 12.667 -85.5 38
s-36 52.666 -36 81.999c0 41.333 13.5 91.166 40.5 149.499s62.667 110.166 107 155.499s87.5 68 129.5 68c41.333 0 70.666 -18.667 87.999 -56c14 -30 22.333 -65.667 25 -107c0.666992 -8 0.333984 -17.333 -0.999023 -28c9.33301 -12.667 13 -27 11 -43
c-4.66699 -22.667 -15 -47.334 -31 -74.001c-17.333 -38.667 -34.833 -88.667 -52.5 -150l-42.5 -149.5c-10.667 -38.333 -28.334 -72.333 -53.001 -102s-55.334 -44.5 -92.001 -44.5zM301.997 431.006c-26.667 0 -56.501 -18.666 -89.501 -55.999s-60.5 -79.5 -82.5 -126.5
s-33 -84.833 -33 -113.5c0 -12.667 4.33301 -22.667 13 -30c30.667 -27.333 79.667 -11 147 49c47.333 41.333 81 88.333 101 141c-3.33301 8 -6 21.167 -8 39.5s-4.16699 33.666 -6.5 45.999s-7.16602 23.833 -14.499 34.5s-16.333 16 -27 16z" />
    <glyph glyph-name="uni0122" unicode="&#x122;" horiz-adv-x="562" 
d="M421 324c22.667 0 41.3301 -9.16797 55.9971 -27.501s22 -40 22 -65s-16 -83.333 -48 -175s-56.333 -137.5 -73 -137.5c-9.33301 0 -16.666 2.83301 -21.999 8.5s-8 13.167 -8 22.5s3.66699 25.166 11 47.499l31 91.5c13.333 38.667 24.666 74 33.999 106
c-31.333 -54.667 -66.166 -98.167 -104.499 -130.5s-76.5 -48.5 -114.5 -48.5s-75.167 16.833 -111.5 50.5s-54.5 70.5 -54.5 110.5c0 62 19.167 130.333 57.5 205s87.666 138.667 147.999 192s118.5 80 174.5 80c18.667 0 36.834 -10.5 54.501 -31.5s26.5 -38.333 26.5 -52
s-5 -20.5 -15 -20.5c-4.66699 0 -12.667 2.5 -24 7.5s-22.666 7.5 -33.999 7.5c-36 0 -77.333 -20 -124 -60s-87.167 -90.5 -121.5 -151.5s-51.5 -117.833 -51.5 -170.5c0 -24.667 7.33301 -44.667 22 -60s34 -23 58 -23s54.833 15.333 92.5 46
s72.834 69.334 105.501 116.001c-34 -9.33301 -58 -14 -72 -14s-27.833 4.83301 -41.5 14.5s-20.5 18.834 -20.5 27.501c0 22.667 49 34 147 34zM143.996 -39.001c10 8.66699 22.6699 12.998 38.0029 12.998s30.666 -7 45.999 -21s23 -30.667 23 -50
c0 -34 -16.833 -65.333 -50.5 -94s-62.834 -43 -87.501 -43c-14 0 -21 5.33301 -21 16c0 8.66699 13.667 23.834 41 45.501s43 40.5 47 56.5c-4.66699 8.66699 -14.334 16.667 -29.001 24s-22 15.833 -22 25.5s5 18.834 15 27.501z" />
    <glyph glyph-name="uni0123" unicode="&#x123;" horiz-adv-x="471" 
d="M150 -245c-47.333 0 -87.168 12.5059 -119.501 37.5059s-48.5 50.167 -48.5 75.5c0 9.33301 3 19.166 9 29.499s12.333 15.5 19 15.5s14.334 -5 23.001 -15s16.834 -20.833 24.501 -32.5s19.5 -22.5 35.5 -32.5s31.5 -15 46.5 -15s26.333 2.16699 34 6.5
s14.834 11.5 21.501 21.5s12.5 20.167 17.5 30.5s10.167 24.166 15.5 41.499l14 46.5c4 13.667 9 32 15 55l15 56.5c-53.333 -40 -96.5 -60 -129.5 -60s-61.5 12.667 -85.5 38s-36 52.666 -36 81.999c0 41.333 13.5 91.166 40.5 149.499s62.667 110.166 107 155.499
s87.5 68 129.5 68c41.333 0 70.666 -18.667 87.999 -56c14 -30 22.333 -65.667 25 -107c0.666992 -8 0.333984 -17.333 -0.999023 -28c9.33301 -12.667 13 -27 11 -43c-4.66699 -22.667 -15 -47.334 -31 -74.001c-17.333 -38.667 -34.833 -88.667 -52.5 -150l-42.5 -149.5
c-10.667 -38.333 -28.334 -72.333 -53.001 -102s-55.334 -44.5 -92.001 -44.5zM301.998 431.006c-26.667 0 -56.501 -18.666 -89.501 -55.999s-60.5 -79.5 -82.5 -126.5s-33 -84.833 -33 -113.5c0 -12.667 4.33301 -22.667 13 -30c30.667 -27.333 79.667 -11 147 49
c47.333 41.333 81 88.333 101 141c-3.33301 8 -6 21.167 -8 39.5s-4.16699 33.666 -6.5 45.999s-7.16602 23.833 -14.499 34.5s-16.333 16 -27 16zM375.497 568.507c-10.333 -8.33301 -23.168 -12.5 -38.501 -12.5s-30.5 7 -45.5 21s-22.5 30.667 -22.5 50
c0 34 16.667 65.167 50 93.5s62.333 42.5 87 42.5c14 0 21 -4.66699 21 -14s-13.667 -24.833 -41 -46.5s-42.666 -40.5 -45.999 -56.5c4 -8.66699 13.5 -16.667 28.5 -24s22.5 -16 22.5 -26s-5.16699 -19.167 -15.5 -27.5z" />
    <glyph glyph-name="Imacron" unicode="&#x12a;" horiz-adv-x="281" 
d="M373.5 761c-18.333 -4.66699 -48.6689 -10.3301 -91.002 -16.9971s-74.166 -11.834 -95.499 -15.501s-37.333 -6.5 -48 -8.5s-21 -3.16699 -31 -3.5s-21 4.66699 -33 15s-18.333 20.166 -19 29.499c0 12.667 24.167 21.667 72.5 27s118.166 9.66602 209.499 12.999
c23.333 0.666992 39.333 -0.5 48 -3.5s13.334 -8.16699 14.001 -15.5c0.666992 -9.33301 -8.16602 -16.333 -26.499 -21zM161.997 623.004c0 11.333 1.33203 19.168 3.99902 23.501s8.66699 6.5 18 6.5s21.5 -9.33301 36.5 -28s22.5 -37 22.5 -55
c0 -32.667 -21.333 -134.334 -64 -305.001l-17.5 -71l-17 -69.5c-4.33301 -17.667 -9.16602 -35.834 -14.499 -54.501c-10.667 -36 -19.334 -54 -26.001 -54c-9.33301 0 -20.166 6.83301 -32.499 20.5s-18.5 26.834 -18.5 39.501s18.167 97.5 54.5 254.5
s54.5 254.5 54.5 292.5z" />
    <glyph glyph-name="imacron" unicode="&#x12b;" horiz-adv-x="260" 
d="M334.5 611c-18.333 -4.66699 -48.6689 -10.3301 -91.002 -16.9971s-74.166 -11.834 -95.499 -15.501s-37.333 -6.5 -48 -8.5s-21 -3.16699 -31 -3.5s-21 4.66699 -33 15s-18.333 20.166 -19 29.499c0 12.667 24.167 21.667 72.5 27s118.166 9.66602 209.499 12.999
c23.333 0.666992 39.333 -0.5 48 -3.5s13.334 -8.16699 14.001 -15.5c0.666992 -9.33301 -8.16602 -16.333 -26.499 -21zM210.997 448.004c0 -40 -34.001 -167 -102.001 -381c-11.333 -34 -26 -51 -44 -51c-8.66699 0 -16.167 4.83301 -22.5 14.5s-8.5 20.5 -6.5 32.5
c4.66699 20.667 13.334 54.667 26.001 102s28 109 46 185s28.667 118.667 32 128c6.66699 20.667 14.334 31 23.001 31c11.333 0 22.166 -6.83301 32.499 -20.5s15.5 -27.167 15.5 -40.5z" />
    <glyph glyph-name="Iogonek" unicode="&#x12e;" horiz-adv-x="281" 
d="M23 -82c0 -12.667 12.001 -18.998 36.001 -18.998c8 0 17.5 2 28.5 6s18.167 6 21.5 6c18 2 29 -5.33301 33 -22c1.33301 -8 -1.33398 -15.833 -8.00098 -23.5s-19.667 -14.5 -39 -20.5s-40.166 -9 -62.499 -9s-42 6.33301 -59 19s-25.5 29.667 -25.5 51s11 46.333 33 75
s47.333 54 76 76c-2.66699 8 -4 13.333 -4 16c0 14.667 18.167 100.5 54.5 257.5s54.5 254.5 54.5 292.5c0 11.333 1.33301 19.166 4 23.499s8.66699 6.5 18 6.5s21.5 -9.33301 36.5 -28s22.5 -37 22.5 -55c0 -32.667 -21.333 -134.334 -64 -305.001
c-4.66699 -16.667 -11.667 -45.667 -21 -87c-18.667 -78 -32.334 -126.333 -41.001 -145c-3.33301 -12 -12.333 -24 -27 -36c-44.667 -34 -67 -60.333 -67 -79z" />
    <glyph glyph-name="iogonek" unicode="&#x12f;" horiz-adv-x="260" 
d="M163 509c11.333 0 22.167 -6.83203 32.5 -20.499s15.5 -27.167 15.5 -40.5c0 -40 -34 -167 -102 -381c-4.66699 -15.333 -10.334 -27.333 -17.001 -36c-4.66699 -12 -13.667 -23.333 -27 -34c-44.667 -34 -67 -60.333 -67 -79c0 -12.667 12 -19 36 -19c8 0 17.5 2 28.5 6
s18.167 6 21.5 6c18 2 29 -5.33301 33 -22c1.33301 -8 -1.33398 -15.833 -8.00098 -23.5s-19.5 -14.5 -38.5 -20.5s-39.833 -9 -62.5 -9s-42.5 6.33301 -59.5 19s-25.5 29.667 -25.5 51s11 46.666 33 75.999c27.333 34.667 54 60.667 80 78v3
c4.66699 20.667 13.334 54.667 26.001 102s28 109 46 185s28.667 118.667 32 128c6.66699 20.667 14.334 31 23.001 31z" />
    <glyph glyph-name="Idotaccent" unicode="&#x130;" horiz-adv-x="281" 
d="M214.5 737c-18.333 17.333 -27.5 32.5 -27.5 45.5s5 25.667 15 38s20.333 18.5 31 18.5s22.667 -14 36 -42s20 -49.333 20 -64c0 -4 -2.83301 -8.66699 -8.5 -14s-11.5 -8 -17.5 -8c-14 0 -30.167 8.66699 -48.5 26zM162 623c0 11.333 1.33203 19.168 3.99902 23.501
s8.66699 6.5 18 6.5s21.5 -9.33301 36.5 -28s22.5 -37 22.5 -55c0 -32.667 -21.333 -134.334 -64 -305.001l-17.5 -71l-17 -69.5c-4.33301 -17.667 -9.16602 -35.834 -14.499 -54.501c-10.667 -36 -19.334 -54 -26.001 -54c-9.33301 0 -20.166 6.83301 -32.499 20.5
s-18.5 26.834 -18.5 39.501s18.167 97.5 54.5 254.5s54.5 254.5 54.5 292.5z" />
    <glyph glyph-name="dotlessi" unicode="&#x131;" horiz-adv-x="260" 
d="M211 448c0 -40 -34.001 -167 -102.001 -381c-11.333 -34 -26 -51 -44 -51c-8.66699 0 -16.167 4.83301 -22.5 14.5s-8.5 20.5 -6.5 32.5c4.66699 20.667 13.334 54.667 26.001 102s28 109 46 185s28.667 118.667 32 128c6.66699 20.667 14.334 31 23.001 31
c11.333 0 22.166 -6.83301 32.499 -20.5s15.5 -27.167 15.5 -40.5z" />
    </font>
</defs>
</svg>
